вход на сайт

Имя пользователя :
Пароль :

Восстановление пароля Регистрация
Война Богов: Бессмертные / Immortals (Тарсем Синх, Боевик, фэнтези, боевик, драма, 2011) [BDRip,Профессиональный (дублированный)]
Рейтинг:
(голосов: 1)



[img]{THEME}/images/logopost.png[/img]



Война Богов: Бессмертные / Immortals
«Богам нужен герой»
Год выпуска: 2011
Страна: США
Производство: Hollywood Gang Productions, Mark Canton Productions, Relativity Media, Virgin Produced
Жанр: фэнтези, боевик, драма

Режиссёр: Тарсем Синх
В ролях: Генри Кавилл, Стивен Дорфф, Люк Эванс, Изабель Лукас, Келлан Латс, Фрида Пинто, Микки Рурк, Джон Хёрт, Джозеф Морган, Энн Дэй-Джонс

Перевод: Профессиональный (дублированный)[лицензия]
Субтитры: Отсутствуют

Описание: Одержимый жаждой власти царь Гиперион хочет уничтожить род людской и низвергнуть богов. С помощью Эпирского Лука, сделанного руками бога войны Ареса, он освобождает Титанов от тысячелетнего заточения в горах Тартара. Боги бессильны противостоять безумному царю. Единственная надежда на спасение - герой Тесей, который вступает в неравную войну с Титанами. Боги Олимпа во главе с самим Зевсом, пророчица Федра и хитрый раб Ставрос помогают герою в смертельной битве с демонами. Тесей должен победить, или боги Олимпа будут низвержены, а Эллада обречена на погибель…



Дата премьеры (мир): 10 ноября 2011
Дата премьеры (РФ): 10 ноября 2011, «Парадиз», «Наше Кино»
Качество: BDRip
Продолжительность: 01:45:57

Формат: AVI
Видео кодек: XviD
Аудио кодек: AC3
Видео: 704 x 384 (1.87:1), 23.976 fps, ~2373 kbps avg, 0.349 bit/pixel
Аудио: 48 kHz, AC3 Dolby Digital, 3/2 (L,C,R,l,r) + LFE ch, ~448.00 kbps
MediaInfo ▼TextGeneral
Complete name : /mnt/data/torrents/god_den/Voina.Bogov.Bessmertnye.2011.DUB.BDRip.2.18.XviD.AC3.-Vaippp.avi
Format : AVI
Format/Info : Audio Video Interleave
File size : 2.18 GiB
Duration : 1h 50mn
Overall bit rate : 2 833 Kbps
Movie name : Immortals (2011)
Director : Vaippp
Genre : Action/Drama
Writing application : VirtualDubModRus 1.5.10.2 (build 2542/release)
Original source form/Name : Movie
Comment : BDRip

Video
ID : 0
Format : MPEG-4 Visual
Codec ID : XVID
Codec ID/Hint : XviD
Duration : 1h 50mn
Bit rate : 2 373 Kbps
Width : 704 pixels
Height : 384 pixels
Display aspect ratio : 16:9
Frame rate : 23.976 fps
Color space : YUV
Chroma subsampling : 4:2:0
Compression mode : Lossy
Bits/(Pixel*Frame) : 0.349
Stream size : 1.75 GiB (80%)

Audio
ID : 1
Format : AC-3
Format/Info : Audio Coding 3
Codec ID : 2000
Duration : 1h 50mn
Bit rate mode : Constant
Bit rate : 448 Kbps
Channel(s) : 6 channels
Sampling rate : 48.0 KHz
Compression mode : Lossy
Stream size : 354 MiB (16%)
Alignment : Aligned on interleaves


04943695172572d23a01e92b431cad5ce2a401a6Война Богов: Бессмертные / Immortals (Тарсем Синх, Боевик, фэнтези, боевик, драма, 2011) [BDRip,Профессиональный (дублированный)] Война Богов: Бессмертные / Immortals (Тарсем Синх, Боевик, фэнтези, боевик, драма, 2011) [BDRip,Профессиональный (дублированный)] " />

Аплоадер: Админ, дата: 18-01-2012, 17:52, торрент скачан: 359 раз

Понравилась раздача? Посмотрите эти:
  • Белоснежка: Месть гномов / Mirror Mirror (Тарсем Синх, фэнтези, драма, коме ...
  • Война Богов: Бессмертные / Immortals (Тарсем Синх, фэнтези, боевик, драма, ...
  • Война Богов: Бессмертные / Immortals (Тарсем Синх / Tarsem Singh, фэнтези, ...
  • Война Богов: Бессмертные / Immortals (Тарсем Синх / Tarsem Singh, фэнтези, ...
  • Запределье / The Fall (Тарсем Синх, фэнтези, драма, приключения, 2006) [BDR ...
  • Война Богов: Бессмертные / Immortals (Тарсем Синх, фэнтези, боевик, драма, ...
  • [3D] 9 Трейлеров 3D фильмов[DCPrip-AVC, (дублированный Русский)][Anamorph O ...
  • [3D] Война Богов: Бессмертные 3D / Immortals 3D (Тарсем Синх, Фэнтези, 2011 ...
  • [3D] Война Богов: Бессмертные 3D / Immortals 3D (Тарсем Синх, Фэнтези, 2011 ...
  • Война Богов: Бессмертные / Immortals (Тарсем Синх, Фэнтези, 2011) [BDRip 72 ...
  • Война Богов: Бессмертные / Immortals (Тарсем Синх, фэнтези, боевик, драма, ...
  • (2011,OST) VA / Война Богов: Бессмертные (OST) [MP3,320/CBR]
  • Война Богов: Бессмертные / Immortals (Тарсем Синх, фэнтези, боевик, драма, ...
  • Война Богов: Бессмертные / Immortals (Тарсем Синх, фэнтези, боевик, драма, ...
  • [iPhone]Война Богов: Бессмертные / Immortals (Тарсем Синх, фэнтези, боевик, ...
  • Война Богов: Бессмертные / Immortals (Тарсем Синх, фэнтези, боевик, драма, ...
  • Война Богов: Бессмертные / Immortals (Тарсем Синх, Фэнтези, 2011) [BDRip, Д ...
  • Война Богов: Бессмертные / Immortals (Тарсем Синх / Tarsem Singh, фэнтези, ...
  • [iPhone, iPod, iPad]Война Богов: Бессмертные / Immortals (Тарсем Синх / Tar ...
  • [3D] Война Богов: Бессмертные / Immortals (Тарсем Синх / Tarsem Sinh, фэнте ...
  • [3D] Война Богов: Бессмертные 3Д+2Д / Immortals 3D+2D (Тарсем Синх, фэнтези ...
  • Война Богов: Бессмертные / Immortals (Тарсем Синх, фэнтези, боевик, драма, ...
  • Белоснежка: Месть гномов / Mirror Mirror (Тарсем Синх, фэнтези, драма, коме ...
  • Белоснежка: Месть гномов / Mirror Mirror (Тарсем Синх, фэнтези, 2012) [HDRi ...
  • Запределье / The Fal (Тарсем Синх, фэнтези, драма, приключения, 2006) [BDRi ...
  • Информация
    Посетители, находящиеся в группе Гости, не могут оставлять комментарии к данной публикации.