вход на сайт

Имя пользователя :
Пароль :

Восстановление пароля Регистрация
Цвет волшебства / The Colour of Magic /(Вадим Жан, Фэнтези, комедия, приключения, семейный, 2008) [HDTVRip, профессиональный многоголосый закадровый]
Рейтинг:
(голосов: 1)



[img]{THEME}/images/logopost.png[/img]



Цвет волшебства / The Colour of Magic

Год выпуска: 2008
Страна: Великобритания
Производство: RHI Entertainment Inc. - The Mob Film Company
Жанр: фэнтези, комедия, приключения, семейный
Режиссёр: Вадим Жан
В ролях: Дэвид Джейсон, Шон Эстин, Тим Карри, Джереми Айронс, Брайан Кокс, Джеймс Космо, Кристофер Ли, Джанет Сузман, Дэвид Брэдли, Найджел Плэйнер, Стивен Маркус, Лаура Хэддок, Лиз Мэй Брайс, Карен Шеназ Дэвид, Джеффри Хатчингс, Марникс Ван Ден Броеке, Николас Теннант, Майкл Мирс, Роджер Эштон-Гриффитс, Уилл Кин, Питер Копли, Джеймс Грин

Перевод: профессиональный (многоголосый закадровый)
Озвучка: Студия «Кравец»
Субтитры: нет

Описание: В Анк-Морпорк, крупнейший город Плоского Мира приезжает первый (и постоянно рискующий стать последним) турист Диска — Двацветок. Ринсвинд, самый трусливый и, вероятно, самый худший волшебник Диска, вынужден стать его гидом. Как большинство туристов, Двацветок абсолютно уверен, что с ним ничего страшного произойти просто не может. И поэтому он смело идет навстречу приключениям, а их будет немало: от поджога целого города до полёта на драконе и падения за Край!
IMDB: 7,10
КиноПоиск: 6,995



Качество:HDTVRip
Продолжительность: 03:06:52 час.

Формат: AVI
Видео кодек: XviD
Аудио кодек: MP3
Видео: 624x352 (16:9), 25.00 fps, XviD~1 042 kbps avg, 0.190 bit/pixel
Аудио: 48 kHz, MPEG Layer 3, 2 ch, ~128 kbps avg

"Mediainfo" ▼F:видеоCvet.volshebstva.2008.avi
General
Complete name : F:видеоCvet.volshebstva.2008.avi
Format : AVI
Format/Info : Audio Video Interleave
File size : 1.54 GiB
Duration : 3h 6mn
Overall bit rate : 1 183 Kbps
Writing application : Nandub v1.0rc2
Writing library : Nandub build 1853/release
Video #0
ID : 0
Format : MPEG-4 Visual
Format profile : Advanced [email protected]
Format settings, BVOP : 1
Format settings, QPel : No
Format settings, GMC : No warppoints
Format settings, Matrix : Custom
Codec ID : XVID
Codec ID/Hint : XviD
Duration : 3h 6mn
Bit rate : 1 042 Kbps
Width : 624 pixels
Height : 352 pixels
Display aspect ratio : 16:9
Frame rate : 25.000 fps
Color space : YUV
Chroma subsampling : 4:2:0
Bit depth : 8 bits
Scan type : Progressive
Compression mode : Lossy
Bits/(Pixel*Frame) : 0.190
Stream size : 1.36 GiB (88%)
Writing library : XviD 1.2.0.dev47 (UTC 2006-11-01)
Audio #1
ID : 1
Format : MPEG Audio
Format version : Version 1
Format profile : Layer 3
Mode : Joint stereo
Mode extension : MS Stereo
Codec ID : 55
Codec ID/Hint : MP3
Duration : 3h 6mn
Bit rate mode : Constant
Bit rate : 128 Kbps
Channel(s) : 2 channels
Sampling rate : 48.0 KHz
Compression mode : Lossy
Stream size : 171 MiB (11%)
Alignment : Aligned on interleaves
Interleave, duration : 24 ms (0.60 video frame)
Interleave, preload duration
6c71af8a2d50757ce73d0bc75566a5a61159d53bЦвет волшебства / The Colour of Magic /(Вадим Жан, Фэнтези, комедия, приключения, семейный, 2008) [HDTVRip, профессиональный многоголосый закадровый] Цвет волшебства / The Colour of Magic /(Вадим Жан, Фэнтези, комедия, приключения, семейный, 2008) [HDTVRip, профессиональный многоголосый закадровый] " />

Аплоадер: Админ, дата: 20-11-2011, 09:27, торрент скачан: 359 раз

Понравилась раздача? Посмотрите эти:
  • Непристойная комедия / InAPPropriate Comedy (Винс Оффер, комедия, 2013) [DV ...
  • Мэрайа Мунди и шкатулка Мидаса / The Adventurer: The Curse of the Midas Box ...
  • Мэрайа Мунди и шкатулка Мидаса / The Adventurer: The Curse of the Midas Box ...
  • Спайдервик: Хроники / The Spiderwick Chronicles (Марк С. Уотерс, Фэнтези, п ...
  • Псы войны / The Dogs of War (Джон Ирвин, боевик, драма, приключения, военны ...
  • Без всего / Sin ella (Джордже Колон, Мелодрама, 2010) [HDTVRip , Профессион ...
  • Эрик Викинг / Erik the Viking (Терри Джонс, фэнтези, комедия, приключения, ...
  • Мой парень – псих / Silver Linings Playbook (Дэвид О. Расселл, Драма, мелод ...
  • Один дома 5: Праздничное ограбление / Home Alone: The Holiday Heist (Питер ...
  • Буря в Арктике / Arctic Blast (Брайан Тренчард-Смит, фантастика, триллер, 2 ...
  • Индиана Джонс: В поисках утраченного ковчега / Indiana Jones and the Raider ...
  • Цвет волшебства / The Colour of Magic // Сезон 1, Эпизоды с 1 по 2 (из 2) ( ...
  • Маленький Николя / Le Petit Nicolas ( Лорен Тирар,комедия, семейный,2009 ) ...
  • Цвет волшебства / The Colour of Magic // Сезон 1, Эпизоды с 1 по 2 (из 2) ( ...
  • Вскрытие инопланетянина/Alien Autopsy (Джонни Кэмпбелл, Комедия, фантастика ...
  • Санта-Хрякус / Hogfather (Вадим Жан, фэнтези, комедия, драма, триллер, 2006 ...
  • Мгновение любви / Here (Браден Кинг, Драма, мелодрама, приключения, 2011) [ ...
  • Три балбеса / The Three Stooges (Бобби Фаррелли, Питер Фаррелли, Комедия, 2 ...
  • Три балбеса / The Three Stooges (Бобби Фаррелли, Питер Фаррелли, Комедия, 2 ...
  • Глушь / Resurrection County (Matt Zettell, ужасы, триллер, 2008) [DVDRip, П ...
  • Искажение / Skew (Сейв Челенз, ужасы, триллер, 2011) [HDRip, Профессиональн ...
  • Ничего, кроме правды / Nothing But the Truth (Род Лури, триллер, драма, 200 ...
  • Робинзон Крузо / Robinson Crusoe (Род Харди, Джордж Миллер, драма, приключе ...
  • Камень судьбы / Stone of destiny (Чарльз Мартин Смит, драма, комедия, крими ...
  • Из джунглей в джунгли / Jungle 2 Jungle (Джон Пасквин, комедия, приключения ...
  • Информация
    Посетители, находящиеся в группе Гости, не могут оставлять комментарии к данной публикации.