вход на сайт

Имя пользователя :
Пароль :

Восстановление пароля Регистрация
Беовульф / Beowulf (Грэм Бейкер, ужасы, фантастика, боевик, 1999) [DVDRip, Профессиональный (полное дублирование)]
Рейтинг:
(голосов: 1)



[img]{THEME}/images/logopost.png[/img]



Беовульф / Beowulf

Год выпуска: 1999
Страна: США
Производство: Capitol Films
Жанр: ужасы, фантастика, боевик

Режиссёр: Грэм Бейкер
В ролях: Кристофер Ламберт, Рона Митра, Оливер Коттон, Готц Отто, Винсент Хэммонд, Чарльз Робинсон, Брент Джеффресон Лоу, Роджер Сломан, Лайла Робертс, Роберт Уиллокс

Перевод: Профессиональный (полное дублирование)
Субтитры: Отсутствуют

Описание:
В далеком будущем, после мирового катаклизма, у человека слишком много врагов и слишком мало шансов, чтобы выжить. Единственное спасение для мирных жителей — создавать крепости.

Но когда последняя крепость рухнет под натиском сил Тьмы, останется одна-единственная надежда на спасение — неуловимый и бесстрашный Беовульф.
IMDB: рейтинг 3.70 (6 070)
КиноПоиск: рейтинг 5.406 (1 645)

Дополнительно:
Релиз от :
Рейтинг MPAA: ▼
Рейтинг R - Лицам до 17 лет обязательно присутствие взрослого



MediaInfo ▼Text
Общее
Полное имя :F:TorrentTempBeowulf.avi
Формат :AVI
Размер :744 MiB
Продолжительность :01:29:06.048
Общий поток :1 168 Kbps
Программа кодирования :VirtualDubMod 1.5.10.2 (build 2540/release)

Видео
Идентификатор :0
Формат :MPEG-4 Visual
Профиль формата :Advanced [email protected]
Параметр BVOP формата :1
Параметр Qpel формата :No
Параметр GMC формата :0
Параметр Matrix формата :Custom
Идентификатор кодека :XVID
Продолжительность :1h 29mn 6s 40ms
Битрейт :1 030 Kbps
Ширина :624 pixels
Высота :464 pixels
Соотношение сторон :1.345
Частота кадров :25.000 fps
Глубина цвета :8 bits
Подвыборка цветности :4:2:0
Цветовое пространство :YUV
Тип развертки :Progressive
Бит/(Пиксели*Кадры) :0.142
Размер потока :656 MiB (88%)
Библиотека кодирования :XviD0050

Аудио #1
Идентификатор :1
Формат :MPEG Audio
Идентификатор кодека :55
Продолжительность :01:29:06.048
Вид битрейта :Constant
Битрейт :128 Kbps
Канал(ы) :2 channels
Частота :48.0 KHz
Метод сжатия :Lossy
Размер потока :81.6 MiB (11%)


&nbs
7db7f8595ae2c29c568fb952abce1549d6bee637Беовульф / Beowulf (Грэм Бейкер, ужасы, фантастика, боевик, 1999) [DVDRip, Профессиональный (полное дублирование)] Беовульф / Beowulf (Грэм Бейкер, ужасы, фантастика, боевик, 1999) [DVDRip, Профессиональный (полное дублирование)] " />

Аплоадер: Админ, дата: 9-07-2011, 16:22, торрент скачан: 359 раз

Понравилась раздача? Посмотрите эти:
  • Воры в законе (Юрий Кара, триллер, криминал, 1988) [DVDRip, Профессиональны ...
  • Конвоиры / Chasers (Деннис Хоппер, комедия, приключения, 1994) [DVDRip, Про ...
  • Обнаженные тела / Body Shots (Майкл Кристофер, драма, 1999) [DVDRip, Профес ...
  • Репли-Кейт / Repli-Kate (Фрэнк Лонго, фантастика, комедия, 2002) [DVDRip, П ...
  • Омен III: Последний конфликт / The Final Conflict (Грэм Бейкер, ужасы, дет ...
  • Честная игра / Fair Game (Эндрю Сайпс, боевик, триллер, 1995) [DVDRip, Проф ...
  • Блинки: Плохой робот / BlinkyTM (Рори Робинсон, короткометражка, ужасы, фан ...
  • Беовульф [Режиссёрская версия] / Beowulf [Directors Cut] (Роберт Земекис, ф ...
  • Легенда о МорДу / The Legend of MorDu (Брайан Ларсен, Короткометражный, ска ...
  • Последний переход (Амангельды Тажбаев, боевик, 1981) [DVDRip, Профессиональ ...
  • Американский пирог 4: Музыкальный лагерь / American Pie Presents Band Camp ...
  • Фрида / Frida (Джули Тэймор, драма, мелодрама, биография, 2002) [DVDRip, Пр ...
  • Будучи там / Being There (Хэл Эшби, драма, комедия, 1979) [DVDRip, Професси ...
  • Нечто / The Thing (Маттис ван Хейниген, Ужасы, фантастика, триллер, 2011) [ ...
  • Нечто / The Thing (Маттис ван Хейниген, Ужасы, фантастика, триллер, 2011) [ ...
  • Афера / The Sting (Джордж Рой Хилл, комедия, криминал, 1973) [HDRip, Профес ...
  • Трюкач / The Stunt Man (2 части из 2-х) (Ричард Раш, боевик, триллер, комед ...
  • Вирус / Virus ( Джон Бруно, фантастика, ужасы, боевик, триллер, 1999) [DVD ...
  • Мальчишки с улицы Пал / A pal-utcai fiuk (Золтан Фабри, драма, 1968) [DVDRi ...
  • Огни рампы / Limelight (Чарльз Чаплин, драма, мелодрама, комедия, музыка, 1 ...
  • Красавица Мемфиса / Memphis Belle (Майкл Кейтон-Джонс, боевик, драма, военн ...
  • Император севера / Emperor of the North Pole (Роберт Олдрич, боевик, трилле ...
  • Суперполицейский / Poliziotto superpiu (Серджио Корбуччи, фантастика, фэнте ...
  • Внутреннее пространство / Innerspace (Джо Данте, фантастика, боевик, комеди ...
  • Повышение / The Promotion (Стив Конрад, Комедия, 2008) [DVDRip, Профессиона ...
  • Информация
    Посетители, находящиеся в группе Гости, не могут оставлять комментарии к данной публикации.