вход на сайт

Имя пользователя :
Пароль :

Восстановление пароля Регистрация
Мифы и легенды: Новый альянс / Mitos y Leyendas La Nueva Alianza (Josй Luis Guridi,Фэнтези, 2004) [DVDRip,Любительский (двухголосый)]
Рейтинг:
(голосов: 1)



[img]{THEME}/images/logopost.png[/img]



Мифы и легенды: Новый альянс / Mitos y Leyendas La Nueva Alianza


Год выпуска: 2004
Страна: Чили
Производство: BancoEstado
Жанр: Фэнтези, Приключения

Режиссёр:Josй Luis Guridi
В ролях: Jenny Cavallo, Victor Gonzalez, Nathalie Nicloux, Patricio Pimienta, Javiera Ramos


Перевод: Любительский (двухголосый)
Субтитры: нет

Описание: Фильм основан на популярной настольной игре, придуманной в Чили и распространившейся на территории Латинской Америки, Европы и США в 39 различных изданиях, фильм рассказывает о группе подростков из Сантьяго, которые отыскали портал, ведущий из реального мира в мир игры. Там они оказались в ловушке у злого Бога, жаждущего власти над миром людей. Тут и появляется Зарор, таинственный воин, ставший на сторону детей.

IMDB: рейтинг 6.5/10 (14 голосов)



Качество: DVDRip
Продолжительность: 01:33:28

Формат: AVI (XviD)
Видео кодек: XviD MPEG-4
Аудио кодек: MPEG Layer 3
Видео: 640x272 (2.35:1), 23.976 fps, XviD MPEG-4 ~908 kbps avg, 0.22 bit/pixel
Аудио: 48 kHz, MPEG Layer 3, 2 ch, ~128.00 kbps avg


Media Info:
▼Format : AVI
Format/Info : Audio Video Interleave
File size : 700 MiB
Duration : 1h 33mn
Overall bit rate : 1 046 Kbps
Writing application : VirtualDubMod 1.5.4.1 (build 2178/release)
Writing library : VirtualDubMod build 2178/release
Video
Format : MPEG-4 Visual
Format profile : Streaming [email protected]
Format settings, BVOP : Yes
Format settings, QPel : No
Format settings, GMC : No warppoints
Format settings, Matrix : Default
Muxing mode : Packed bitstream
Codec ID : XVID
Codec ID/Hint : XviD
Duration : 1h 33mn
Bit rate : 909 Kbps
Width : 640 pixels
Height : 272 pixels
Display aspect ratio : 2.35
Frame rate : 23.976 fps
Resolution : 24 bits
Colorimetry : 4:2:0
Scan type : Progressive
Bits/(Pixel*Frame) : 0.218
Stream size : 608 MiB (87%)
Writing library : XviD 50
Audio
Format : MPEG Audio
Format version : Version 1
Format profile : Layer 3
Codec ID : 55
Codec ID/Hint : MP3
Duration : 1h 33mn
Bit rate mode : Constant
Bit rate : 128 Kbps
Minimum bit rate : 128 Kbps
Channel(s) : 2 channels
Sampling rate : 48.0 KHz
Resolution : 16 bits
Stream size : 85.6 MiB (12%)
Alignment : Aligned on interleaves
Interleave, duration : 42 ms (1.00 video frame)
Interleave, preload duration : 504 ms
Writing l
ecce7d07d23698fbec7f2163207360f7bbf7b005Мифы и легенды: Новый альянс / Mitos y Leyendas La Nueva Alianza (Josй Luis Guridi,Фэнтези, 2004) [DVDRip,Любительский (двухголосый)] Мифы и легенды: Новый альянс / Mitos y Leyendas La Nueva Alianza (Josй Luis Guridi,Фэнтези, 2004) [DVDRip,Любительский (двухголосый)] " />

Аплоадер: Админ, дата: 25-12-2010, 13:13, торрент скачан: 359 раз

Понравилась раздача? Посмотрите эти:
  • Снег / Snow (Алекс Замм, Фэнтези, комедия, семейный, 2004)[DVDRip, Професси ...
  • Вирус / Flu (Ким Сон Су, Драма, 2013) [HDTVRip, Любительский (двухголосый з ...
  • Мэрайа Мунди и шкатулка Мидаса / The Adventurer: The Curse of the Midas Box ...
  • Мужество / Wymyk (Грег Зглински, драма, 2011) [DVDRip, Любительский (одного ...
  • Решала (Роман Асхаев, Драма,Криминал, 2012) [WEB-DLRip, Не требуется]
  • Альбатрос / Albatross (Найал МакКормик, Драма, 2011) [DVDRip, Профессиональ ...
  • Игра смерти / Game of death (Роберт Клауз, Саммо Хунг Кам-Бо, Брюс Ли, боев ...
  • [EN] Команда: На пути Аллаха / Takiye: Allah yolunda (2010, Бен Вербонг, тр ...
  • Космические Мутанты / Mutant Aliens (Билл Плимптон, мультфильм, фантастика, ...
  • Новые парни турбо / New Kids Turbo (Штефен Хаарс, Боевик, комедия, 2010) [H ...
  • Тюремщик / Screwed (Рег Тревисс / Reg Traviss, Драма, 2011) [DVDRip , Люби ...
  • Чемпионат Европы 2012 / Группа C / 1-й тур / Ирландия — Хорватия / ТРК Футб ...
  • Чемпионат Европы 2012 / Группа D / 1-й тур / Украина - Швеция / Спорт 1 [11 ...
  • Люди Икс: Начало. Росомаха / X-Men Origins: Wolverine (Гэвин Худ, фантастик ...
  • Неделя в NBA с В.Гомельским / НТВ+ [28.06.2011, SD, XviD, RU, SAT]
  • Скуби-Ду: Нападение Пантазаура / Scooby-Doo! Legend of the Phantosaur (Дугл ...
  • Неприкасаемые / Intouchables (Оливье Накаш, Эрик Толедано, Драма, 2011) [BD ...
  • Мокрый коврик / Mortal Kombat (Пол У. С. Андерсон, Пародия, 1995) [DVDRip, ...
  • Чемпионат Европы 2012 / Группа B / 1-й тур / Германия - Португалия / Спорт ...
  • Ничего, кроме правды / Nothing But the Truth (Род Лури, триллер, драма, 200 ...
  • Информация
    Посетители, находящиеся в группе Гости, не могут оставлять комментарии к данной публикации.