вход на сайт

Имя пользователя :
Пароль :

Восстановление пароля Регистрация
Второй шанс / Gridiron Gang (Фил Джоану / Phil Joanou, драма, криминал, спорт, 2006) [BDRip - AVC, Многоголосый + Оригинал + SUB]
Рейтинг:
(голосов: 1)



[img]{THEME}/images/logopost.png[/img]



Второй шанс / Gridiron Gang
«One goal. A second chance.»

Год выпуска: 2006
Страна: США
Производство: Columbia Pictures Industries Inc., Original Film, Relativity Media, Stanhaven Productions Inc., Visual Arts Entertainment Inc.
Жанр: драма, криминал, спорт

Режиссёр: Фил Джоану / Phil Joanou
В ролях: Дуэйн Джонсон, Иксзибит, Л. Скотт Колдуэлл, Леон Риппи, Кевин Данн, Джейд Йоркер, Дэвид Томас, Мо, Джеймс Эрл, Брэндон Смит, Джерни Смоллетт, Майкл Дж. Паган, Ямал Миксон, Омари Хардвик

Перевод: 1: Профессиональный (многоголосый, закадровый) (MVO)
2: Оригинал
Субтитры: Русские, Английские

Описание: Кажется, что те, кто уже серьезно оступились однажды и отбывают срок в исправительном учреждении, обречены, но может ли жизнь предоставить еще один шанс?! Особенно если есть человек, способный помочь. Помогут ли футбол и командный дух его воспитанникам вновь обрести чувство собственного достоинства и встать на путь исправления?!Дата премьеры (мир): 5 сентября 2006
Релиз на Blu-Ray: 25 июня 2009, «Columbia/Sony»
Качество: BDRip - AVC
Продолжительность: 02:05:17

Формат: MKV
Видео кодек: x264
Аудио кодек: AC3
Видео: 1056 x 440 (2.40:1), 23.976 fps, ~2 981 kbps avg, 0.261 bit/pixel
Аудио #1: [Russian] 48 kHz, AC3, 6 channels (Front: L C R, Side: L R, LFE), ~448.00 kbps avg | MVO
Аудио #2: [English] 48 kHz, AC3, 6 channels (Front: L C R, Side: L R, LFE), ~448.00 kbps avg | Оригинал
MediaInfo ▼TextGeneral
UniqueID : 240474721988391245356803727245286781780 (0xB4E9BF2DEDB480EBAF6C742134CF3354)
Complete name : D:VIDEOGridiron.Gang.2006.BDRip-AVC.Rus.Eng.mkv
Format : Matroska
File size : 3.40 GiB
Duration : 2h 5mn
Overall bit rate : 3 879 Kbps
Encoded date : UTC 2010-12-15 20:40:31
Writing application : mkvmerge v3.4.0 (Rapunzel) built on May 15 2010 09:38:20
Writing library : libebml v0.8.0 + libmatroska v0.9.0
Video
ID : 1
Format : AVC
Format/Info : Advanced Video Codec
Format profile : [email protected]
Format settings, CABAC : Yes
Format settings, ReFrames : 11 frames
Codec ID : V_MPEG4/ISO/AVC
Duration : 2h 5mn
Bit rate : 2 981 Kbps
Width : 1 056 pixels
Height : 440 pixels
Display aspect ratio : 2.40:1
Frame rate : 23.976 fps
Color space : YUV
Chroma subsampling : 4:2:0
Bit depth : 8 bits
Scan type : Progressive
Bits/(Pixel*Frame) : 0.261
Stream size : 2.54 GiB (75%)
Title : Gridiron Gang
Writing library : x264 core 110 r1820 fdcf2ae
Encoding settings : cabac=1 / ref=11 / deblock=1:-2:-1 / analyse=0x3:0x133 / me=umh / subme=10 / psy=1 / psy_rd=1.00:0.00 / mixed_ref=1 / me_range=32 / chroma_me=0 / trellis=2 / 8x8dct=1 / cqm=0 / deadzone=21,11 / fast_pskip=0 / chroma_qp_offset=-2 / threads=3 / sliced_threads=0 / nr=0 / decimate=0 / interlaced=0 / constrained_intra=0 / bframes=10 / b_pyramid=2 / b_adapt=2 / b_bias=0 / direct=3 / weightb=1 / open_gop=0 / weightp=2 / keyint=250 / keyint_min=23 / scenecut=40 / intra_refresh=0 / rc_lookahead=40 / rc=crf / mbtree=0 / crf=19.1 / qcomp=0.65 / qpmin=0 / qpmax=51 / qpstep=4 / vbv_maxrate=25000 / vbv_bufsize=31250 / crf_max=0.0 / ip_ratio=1.40 / pb_ratio=1.30 / aq=1:1.00 / nal_hrd=none
Language : English
Audio #1
ID : 2
Format : AC-3
Format/Info : Audio Coding 3
Mode extension : CM (complete main)
Codec ID : A_AC3
Duration : 2h 5mn
Bit rate mode : Constant
Bit rate : 448 Kbps
Channel(s) : 6 channels
Channel positions : Front: L C R, Side: L R, LFE
Sampling rate : 48.0 KHz
Bit depth : 16 bits
Compression mode : Lossy
Stream size : 401 MiB (12%)
Title : Профессиональный (многоголосый)
Language : Russian
Audio #2
ID : 3
Format : AC-3
Format/Info : Audio Coding 3
Mode extension : CM (complete main)
Codec ID : A_AC3
Duration : 2h 5mn
Bit rate mode : Constant
Bit rate : 448 Kbps
Channel(s) : 6 channels
Channel positions : Front: L C R, Side: L R, LFE
Sampling rate : 48.0 KHz
Bit depth
f8ee7db6b664ec0bb56bec51cc8744a1962ae4d7Второй шанс / Gridiron Gang (Фил Джоану / Phil Joanou, драма, криминал, спорт, 2006) [BDRip - AVC, Многоголосый + Оригинал + SUB] Второй шанс / Gridiron Gang (Фил Джоану / Phil Joanou, драма, криминал, спорт, 2006) [BDRip - AVC, Многоголосый + Оригинал + SUB] " />

Аплоадер: Админ, дата: 7-07-2012, 15:33, торрент скачан: 359 раз

Понравилась раздача? Посмотрите эти:
  • Погнали! / Getaway (Кортни Соломон, боевик, криминал, 2013) [BDRip 720p, Пр ...
  • Второй шанс / Gridiron Gang (Фил Джоану, Драма, криминал, спорт, 2006) [BDR ...
  • Соучастник / Collateral (Майкл Манн, Триллер, драма, криминал, 2004) [BDRip ...
  • Отдел 13 / Diamant 13 (Гайллз Бэхат, Боевик, триллер, криминал, 2009) [BDRi ...
  • Джекпот / Arme Riddere (Магнус Мартенс, Боевик, комедия, криминал, 2011) [B ...
  • Убить по расписанию / Ticking Clock (Эрни Барбараш, фантастика, боевик, три ...
  • Цельнометаллическая оболочка / Full Metal Jacket (Стэнли Кубрик, драма, вое ...
  • Аноним / Anonymous (Роланд Эммерих, триллер, драма, 2011) [BDRip-AVC, Профе ...
  • Мартовские иды / The Ides of March (Джордж Клуни / George Clooney, драма, 2 ...
  • Персонаж / Stranger Than Fiction (Марк Форстер, Комедия, драма, фантастика, ...
  • Второй шанс / Gridiron Gang (Фил Джоану, драма, криминал, спорт, 2006) [HD ...
  • Робин Гуд [Режиссёрская версия] / Robin Hood [Directors Cut] (Ридли Скотт / ...
  • Апокалипсис сегодня / Apocalypse Now (Френсис Форд Коппола / Francis Ford C ...
  • Сутенер / Le mac (Паскаль Бюрдо / Pascal Bourdiaux, комедия, криминал, 2010 ...
  • Мальчики-налетчики / Takers (Джон Льюсенхоп, боевик, криминал, 2010) [BDRip ...
  • Патруль / End of Watch (Дэвид Эйр, Триллер, драма, криминал, 2012) [BDRip-A ...
  • Похищенная / A Lonely Place to Die (Джулиан Джилби, триллер, криминал, прик ...
  • Три метра над уровнем неба / Tres metros sobre el cielo (Фернандо Гонзалез ...
  • Футбольная Банда (Второй Шанс) / Gridiron Gang (Фил Жану / Phil Joanou, Дра ...
  • Футбольные гладиаторы / Ушедшее время / Awaydays (Пэт Холден, драма, кримин ...
  • Информация
    Посетители, находящиеся в группе Гости, не могут оставлять комментарии к данной публикации.