вход на сайт

Имя пользователя :
Пароль :

Восстановление пароля Регистрация
Гол 2: Жизнь как мечта / Goal 2: Living the Dream ( Жауме Серра / Jaume Collet-Serra, Драма, Спорт, 2007) [ DVDRip, Dub + original + sub]
Рейтинг:
(голосов: 1)



[img]{THEME}/images/logopost.png[/img]



Гол 2: Жизнь как мечта / Goal 2: Living the Dream

Год выпуска: 2006
Страна: Великобритания
Производство: Anola Films S.L., Impala, Little Magic Films
Жанр:Драма, Спорт
Режиссёр: Жауме Серра / Jaume Collet-Serra

В ролях: Куно Беккер, Алессандро Нивола, Анна Фрил, Стивен Диллэйн, Рутгер Хауэр, Элизабет Пенья, Фрэнсис Барбер, Дэвид Бекхэм, Зинедин Зидан, Мириам Колон, Киран ОБрайен, Леонор Варела, Шон Пертви, Ник Кэннон, Альфредо Родригес, Майк Джеффрис, Уильям Бек, Эмма Филд-Рэйнер, Сезар Жулио Баптиста, Икер Касиллас, Джон Гомес, Рауль Гонсалес, Хосе Мария Гутиеррес, Кармело Гомес, Стив МакМанаман, Франсиско Павон, Серхио Рамос, Робиньо, Роналдо, Мичел Сальгадо, Майкл Оуэн

Перевод: Дублированный + оригинал
Субтитры: Русский, Русский форсированный (прорезан)

ОписаниеУ восходящей звезды футбола Сантьяго Муньеса есть все: место нападающего в легендарной команде «Реал Мадрид», новенький «Ламборджини», собственная вилла, любовь знойных испанских красавиц. Но самое главное — у него есть возможность играть на одном поле и пользоваться одной раздевалкой с величайшими футболистами современности — с Бекхемом, Раулем, Зиданом и Рональдо! Но прошлое не отпускает Сантьяго — проблемы таятся буквально за углом. Сумеет ли молодой футболист преодолеть искушение славой, деньгами, успехом? Сможет ли он сохранить преданность старым друзьям, и помочь своей новой команде выиграть финал Лиги Чемпионов?




"MediaInfo | x264" ▼TextОбщее
Полное имя : Gol.2.Zhizn.kak.mechta.DVDRip.avi
Формат : AVI
Формат/Информация : Audio Video Interleave
Размер файла : 1,88 Гбайт
Продолжительность : 1 ч. 50 м.
Общий поток : 2431 Кбит/сек
Программа кодирования : VirtualDubMod 1.5.10.3 | www.virtualdub-fr.org || (build 2550/release)
Библиотека кодирования : VirtualDubMod build 2550/release

Видео
Идентификатор : 0
Формат : MPEG-4 Visual
Профиль формата : Advanced [email protected]
Параметр BVOP формата : 1
Параметр QPel формата : Нет
Параметр GMC формата : Без точки перехода
Параметр матрицы формата : Выборочная
Идентификатор кодека : XVID
Идентификатор кодека/Подсказка : XviD
Продолжительность : 1 ч. 50 м.
Битрейт : 2229 Кбит/сек
Ширина : 720 пикс.
Высота : 304 пикс.
Соотношение сторон : 2,35:1
Частота кадров : 25,000 кадр/сек
Цветовое пространство : YUV
Подвыборка цветности : 4:2:0
Битовая глубина : 8 бит
Тип развёртки : Прогрессивная
Метод сжатия : С потерями
Бит/(Пиксели*Кадры) : 0.407
Размер потока : 1,72 Гбайт (92%)
Библиотека кодирования : XviD 1.2.1 (UTC 2008-12-04)

Аудио
Идентификатор : 1
Формат : AC-3
Формат/Информация : Audio Coding 3
Расширение режима : CM (complete main)
Идентификатор кодека : 2000
Продолжительность : 1 ч. 50 м.
Вид битрейта : Постоянный
Битрейт : 192 Кбит/сек
Каналы : 2 канала
Расположение каналов : Front: L R
Частота : 48,0 КГц
Битовая глубина : 16 бит
Метод сжатия : С потерями
Размер потока : 152 Мбайт (8%)
Выравнивание : Разделение по промежуткам
Продолжительность промежутка : 40 мс. (1,00 видеокадр)
Время предзагрузки промежутка : 500 ms

Качество:DVDRip
Продолжительность:01:50:40

Формат: AVI
Видео кодек: XviD
Аудио кодек: AС3
Видео: 720x304 (2.35:1), 25 fps, XviD ~ 2229 kbps avg, 0.407 bit/pixel
Аудио 1:Русский, 48 kHz, AC3 2 ch, 192.00 kbps Constant
Аудио 2: Английский, 48 kHz, AC3 6 ch, 384.00 kbps Constant



Стол заказов POWER | Отзывы | Вступление в POWER


5f1d9798a1bc9264a3eb2b887cb831c5bb4e3457Гол 2: Жизнь как мечта / Goal 2: Living the Dream ( Жауме Серра / Jaume Collet-Serra, Драма, Спорт, 2007) [ DVDRip, Dub + original + sub] Гол 2: Жизнь как мечта / Goal 2: Living the Dream ( Жауме Серра / Jaume Collet-Serra, Драма, Спорт, 2007) [ DVDRip, Dub + original + sub] " />

Аплоадер: Админ, дата: 10-04-2012, 19:01, торрент скачан: 359 раз

Понравилась раздача? Посмотрите эти:
  • Бойфренд из будущего / About Time (Ричард Кёртис, Фантастика, драма, комеди ...
  • Околофутбола (Антон Борматов, драма, криминал, 2013) [DVDRip, Не требуется] ...
  • Околофутбола (Антон Борматов, драма, криминал, 2013) [DVDRip, Не требуется] ...
  • Гол 2/Goal 2(Хаум Серра,Драма,спорт,2007) [Профессиональный,Многоголосый,Dv ...
  • Неизвестный / Unknown (Жауме Серра, драма, триллер, детектив, 2011) [DVDRip ...
  • Неизвестный / Unknown (Жауме Серра, Триллер, 2011) [BDRip - AVC, Дубляж]
  • Неизвестный / Unknown (Жауме Серра / Jaume Collet-Serra, триллер, драма, де ...
  • Неизвестный / Unknown (Жауме Серра / Jaume Collet-Serra, триллер, драма, де ...
  • Гол 2: Жизнь как мечта / Goal II: Living the Dream (Хаум Серра, драма, спо ...
  • Отбой / Taps (Харольд Беккер, Драма, 1981) [DVDRip, Профессиональный (много ...
  • Путешествие на дно моря / Voyage to the Bottom of the Sea (Ирвин Аллен / I ...
  • Кажется, я люблю свою жену / I Think I Love My Wife (Крис Рок, Драма, мелод ...
  • Кажется, я люблю свою жену / I Think I Love My Wife (Крис Рок, Драма, мелод ...
  • Кошмар / Nightmare / Qing Yan (Херман Яу, ужасы, триллер, 2012) [DVDRip, Лю ...
  • Гол 2: Жизнь как мечта/Goal II: Living the Dream(Хаум Серра/Jaume Collet-Se ...
  • Детский душ / Baby Shower (Pablo Illanes, Ужасы, 2011) [DVDRip, Любительски ...
  • Неизвестный / Unknown (Жауме Серра, триллер, драма, детектив, 2011) [BDRip, ...
  • Неизвестный / Unknown (Жауме Серра, триллер, драма, детектив, 2011) [BDRip, ...
  • Лопе де Вега: Распутник и соблазнитель / Lope ( Андруча Уэддингтон / Andruc ...
  • Гол 2: Жизнь Как Мечта / Goal II: Living The Dream (Хаум Серра / Jaume Coll ...
  • Неизвестный / Unknown (Жауме Серра / Jaume Collet-Serra, триллер, драма, де ...
  • Жизнь за брата / The Heavy (Маркус Уоррен, триллер, 2010) [DVDRip, Професси ...
  • Глаз шторма / The Eye of the Storm (Фред Скеписи, Драма, 2011) [HDRip, Проф ...
  • Человек из банки (Иван Кульнев, Комедия, 2012) [DVDRip, Не требуется]
  • Сдохни, Джон Такер / John Tucker Must Die (Бетти Томас, мелодрама, комедия, ...
  • Информация
    Посетители, находящиеся в группе Гости, не могут оставлять комментарии к данной публикации.