вход на сайт

Имя пользователя :
Пароль :

Восстановление пароля Регистрация
Человек, который изменил всё / Moneyball (Беннетт Миллер, драма, биография, спорт, 2011) [HDRip, Дубляж]
Рейтинг:
(голосов: 1)



[img]{THEME}/images/logopost.png[/img]



Человек, который изменил всё / Moneyball
«А что в жизни сделал ты?»

Год выпуска: 2011
Страна: США

Производство: Film Rites
Жанр: драма, биография, спорт

Режиссёр: Беннетт Миллер / Bennett Miller
В ролях: Брэд Питт, Джона Хилл, Филип Сеймур Хоффман, Робин Райт, Крис Прэтт, Стефен Бишоп, Брент Дженнингс, Кен Медлок, Тэмми Бланчард, Джек МакГ

Перевод: Профессиональный (полное дублирование)
Субтитры: Отсутствуют

Описание: Фильм по книге Майкла M. Льюиса, изданной в 2003 году, об Оклендской бейсбольной команде и ее генеральном менеджере, Билли Бине. Его цель — создать конкурентоспособную бейсбольную команду, несмотря на финансовые трудности.





Доп. информация
Поддерживается большинством DVD-проигрывателей.
Премьеры ▼• премьера (мир): 12 августа 2011
• премьера (РФ): 29 сентября 2011, «WDSSPR»
• релиз на DVD: 1 ноября 2011, «Columbia/Sony»
• релиз на Blu-Ray: 29 ноября 2011, «Columbia/Sony»

Рейтинг MPAA: ▼
Рейтинг R - Детям до 17 лет обязательно присутствие родителей

MediaInfo ▼ Text
General
Complete name : F:Человек, который изменил всё.avi
Format : AVI
Format/Info : Audio Video Interleave
File size : 898 MiB
Duration : 2h 13mn
Overall bit rate : 942 Kbps
Writing application : VirtualDubMod 1.5.10.3 | www.virtualdub-fr.org || (build 2550/release)
Writing library : VirtualDubMod build 2550/release
Video #0
ID : 0
Format : MPEG-4 Visual
Format profile : Advanced [email protected]
Format settings, BVOP : 1
Format settings, QPel : No
Format settings, GMC : No warppoints
Format settings, Matrix : Default (H.263)
Codec ID : XVID
Codec ID/Hint : XviD
Duration : 2h 13mn
Bit rate : 805 Kbps
Width : 640 pixels
Height : 352 pixels
Display aspect ratio : 16:9
Frame rate : 23.976 fps
Color space : YUV
Chroma subsampling : 4:2:0
Bit depth : 8 bits
Scan type : Progressive
Compression mode : Lossy
Bits/(Pixel*Frame) : 0.149
Stream size : 767 MiB (85%)
Writing library : XviD 1.2.1 (UTC 2008-12-04)
Audio #1
ID : 1
Format : MPEG Audio
Format version : Version 1
Format profile : Layer 3
Codec ID : 55
Codec ID/Hint : MP3
Duration : 2h 13mn
Bit rate mode : Constant
Bit rate : 128 Kbps
Channel(s) : 2 channels
Sampling rate : 48.0 KHz
Compression mode : Lossy
Stream size : 122 MiB (14%)
Alignment : Aligned on interleaves
Interleave, duration : 42 ms (1.00 video frame)
Interleave, preload duration : 504 ms
Writing library : LAME3.99
Encoding settings : -m s -V 4 -q 2 -lowpass 17 -b 128


Автор Рипа:
Качество: HDRip [BDRip 720p]
Продолжительность: 02:13:15 час.

Формат: AVI
Видео кодек: XviD build 1.2.1
Аудио кодек: MPEG Layer 3
Видео: 640x352 (16:9), 23,976 fps, ~805 kbps avg, 0.149 bit/pixel
Аудио : 48 kHz, 2 ch, ~128.00 kbps avg



9ec3ce4f6d72f8c3c36366be7a620e73ab3ec75fЧеловек, который изменил всё / Moneyball (Беннетт Миллер, драма, биография, спорт, 2011) [HDRip, Дубляж] Человек, который изменил всё / Moneyball (Беннетт Миллер, драма, биография, спорт, 2011) [HDRip, Дубляж] " />

Аплоадер: Админ, дата: 19-12-2011, 04:59, торрент скачан: 359 раз

Понравилась раздача? Посмотрите эти:
  • Решала (Роман Асхаев, Драма,Криминал, 2012) [WEB-DLRip, Не требуется]
  • Человек, который изменил всё / Moneyball (Беннетт Миллер, драма, биография, ...
  • Человек, который изменил всё / Moneyball (Беннетт Миллер, Драма, 2011) [BDR ...
  • Человек, который изменил всё / Moneyball (Беннетт Миллер, драма, биография, ...
  • Человек, который изменил всё / Moneyball (Беннетт Миллер, драма, биография, ...
  • Человек, который изменил всё / Moneyball (Беннетт Миллер, драма, биография, ...
  • Человек, который изменил всё / Moneyball (Беннетт Миллер, драма, биография, ...
  • Человек, который изменил всё / Moneyball (Беннетт Миллер, Драма, 2011) [BDR ...
  • Человек, который изменил всё / Moneyball (Беннетт Миллер, драма, биография, ...
  • Формула 1 2011 / Этап 17 из 19 / Гран-При Индии / Гонка / Спорт 1 [30.10.20 ...
  • Чемпионат Европы 2012 / Группа D / 1-й тур / Украина - Швеция / Спорт 1 [11 ...
  • Tank Feat. T.I. & Kris Stephens / Compliments [2012, RnB,Hip-Hop, HDRip]
  • Человек, который изменил всё / Moneyball (Беннетт Миллер, драма, биография, ...
  • Неделя в NBA с В.Гомельским / НТВ+ [28.06.2011, SD, XviD, RU, SAT]
  • Человек, который изменил всё / Moneyball (Беннетт Миллер, драма, биография, ...
  • Человек, который изменил всё / Moneyball (Беннетт Миллер, драма, биография, ...
  • Человек, который изменил всё / Moneyball (Беннетт Миллер, драма, биография, ...
  • Человек, который изменил всё / Moneyball (Беннетт Миллер. драма, биография ...
  • Чемпионат Европы 2012 / Группа B / 1-й тур / Германия - Португалия / Спорт ...
  • Искажение / Skew (Сейв Челенз, ужасы, триллер, 2011) [HDRip, Профессиональн ...
  • Информация
    Посетители, находящиеся в группе Гости, не могут оставлять комментарии к данной публикации.