вход на сайт

Имя пользователя :
Пароль :

Восстановление пароля Регистрация
Гарри Поттер и Белое Золото II / Harry Potter and the White Gold II (Дэвид Йейтс, 2012, Комедия) [BDRip 1080p, Дубляж (от Gremlin Creative Studio)]
Рейтинг:
(голосов: 1)



[img]{THEME}/images/logopost.png[/img]



Гарри Поттер и Белое Золото II / Harry Potter and the White Gold II

Год выпуска: 2012
Страна: США
Производство: Gremlin Creative Studio
Жанр: Комедия

Режиссёр: Дэвид Йейтс / David Yates
В ролях: Гарри Поттер, Рыжий Петух, Стерва Грэйнджер, Дарт Морт, Хагрид, Ленин и др.

Перевод:Дубляж
Озвучка: Gremlin Creative Studio

Описание: Гарри Поттер и его верные друзья бродят по планете в наивных поисках белого порошка. Безденежье, отсутствие дозы, никчемный назойливый друг и требующая какой-то нежности девушка сменяются положительной новостью, которую ему говорит один старый знакомый, - у Темного Владыки есть целый склад белого золота! Несомненно это и становится целью очкастого сорвиголовы.
Тем временем Дарт Морт готовит ситхов для захвата власти в волшебном мире. А школа геев и лесбиянок Хогвартс - стратегически важное место для этой цели. Захватив ее, Повелитель ситхов сможет, наконец-таки, покончить со своей местью! Местью за жестокий обман с его усыновлением! И только один человек, слепо ведомый потребностью в дозе, может помешать ему. Только ОН способен спасти мир!

8.1/10
8,07 (89726)

Доп. информация: перевод от "Gremlin Creative Studio", создателей "Гарри Поттер и Белое Золото" , т.е. там полно всякой ругани, мата и пошлости. Ввиду этого, тем, кого не устраивает что-либо из вышесказанного, убедительная просьба НЕ КАЧАТЬ фильм, дабы не разводить демагогию в бестолковых постах. Данный фильм является прямым продолжением предыдущей части! И заключительной частью для всей серии ГП от GCS! Ввиду этого предупреждаем: смотреть "ГП и Белое Золото 2" отдельно не имеет смысла! (Требуется знание сюжета, начиная от "ГП и Турнир Смерти".)

p.s.: релиз состоялся 12 декабря 2012г.

MediaInfo ▼Text
Complete name : x:Гарри Поттер(7.2) и Белое Золото 2_BDRip.1080.mkv
Format : Matroska
File size : 7.02 GiB
Duration : 1h 59mn
Overall bit rate : 8 416 Kbps
Encoded date : UTC 2012-12-07 22:01:48
Writing application : mkvmerge v4.4.0 (Die Wiederkehr) сборка от Oct 31 2010 21:52:48
Writing library : libebml v1.0.0 + libmatroska v1.0.0

Video
ID : 1
Format : AVC
Format/Info : Advanced Video Codec
Format profile : [email protected]
Format settings, CABAC : No
Format settings, ReFrames : 2 frames
Muxing mode : Header stripping
Codec ID : V_MPEG4/ISO/AVC
Duration : 1h 59mn
Bit rate : 7 800 Kbps
Width : 1 920 pixels
Height : 800 pixels
Display aspect ratio : 2.40:1
Frame rate : 23.976 fps
Color space : YUV
Chroma subsampling : 4:2:0
Bit depth : 8 bits
Scan type : Progressive
Bits/(Pixel*Frame) : 0.212
Stream size : 6.50 GiB (93%)
Title : GCS.HP7.2

Audio
ID : 2
Format : AC-3
Format/Info : Audio Coding 3
Mode extension : CM (complete main)
Muxing mode : Header stripping
Codec ID : A_AC3
Duration : 1h 59mn
Bit rate mode : Constant
Bit rate : 448 Kbps
Channel(s) : 2 channels
Channel positions : Front: L R
Sampling rate : 44.1 KHz
Bit depth : 16 bits
Compression mode : Lossy
Stream size : 382 MiB (5%)
Title : GCS.HP7.2
Language : Russian


Официальный сайт: Gremlin Creative Studio

Качество: BDRip 1080p
Продолжительность: 01:59:20

Формат: MKV
Видео кодек: H.264
Аудио кодек: AC3
Видео:1920x800 (2.40:1), 23.976 fps, ~8000 kbps avg, 0.19 bit/pixel
Аудио: AC-3, 44.1 KHz, 448 Kbps, Stereo (Front: L R), 16 bits



f1badec7320ad57e091ad1d5ce4c4a4812c81c34Гарри Поттер и Белое Золото II / Harry Potter and the White Gold II (Дэвид Йейтс, 2012, Комедия) [BDRip 1080p, Дубляж (от Gremlin Creative Studio)] Гарри Поттер и Белое Золото II / Harry Potter and the White Gold II (Дэвид Йейтс, 2012, Комедия) [BDRip 1080p, Дубляж (от Gremlin Creative Studio)] " />

Аплоадер: Админ, дата: 14-12-2012, 21:18, торрент скачан: 359 раз

Понравилась раздача? Посмотрите эти:
  • (2012) VA / Гарри Поттер и Белое Золото II / Harry Potter and the White Gol ...
  • Гарри Поттер и Дары смерти: Часть 1 / Harry Potter and the Deathly Hallows: ...
  • Гарри Поттер и Белое Золото I / Harry Potter and the White Gold I (Дэвид Йе ...
  • Гарри Поттер и Дары смерти: Часть II / Harry Potter and the Deathly Hallows ...
  • Гарри Поттер и Белое Золото I / Harry Potter and the White Gold I (Дэвид Йе ...
  • Гарри Поттер и Белое Золото II / Harry Potter and the White Gold II (Дэвид ...
  • [3D] Гарри Поттер и Дары Смерти: часть 2 / Harry Potter and the Deathly Hal ...
  • Гарри Поттер и Дары смерти: Часть 1 / Harry Potter and the Deathly Hallows ...
  • [Дилогия] Гарри Поттер и Дары смерти / [Dilogy] Harry Potter and the Deathl ...
  • Гарри Поттер и Пленник Азкабана/Harry Potter and the Prisoner of Azkaban
  • Гарри Поттер и Философский Камень / Harry Potter and the Philosophers Stone ...
  • [ENG] Дж. К. Ролинг. Гарри Поттер / J.K. Rowling. Harry Potter / (7 книг) ...
  • [EN] Дж.К. Роулинг. Гарри Поттер / J.K. Rowling. Harry Potter // 7 книг (ск ...
  • Все 7 книг о Гарри Поттере/Весь Harry Potter[1997-2007, doc, pdf]
  • Гарри Поттер и Партия Ленина / Harry Potter and the Party Of Lenin (Дэвид Й ...
  • Гарри Поттер и Турнир Смерти / Harry Potter 4 (Майк Ньюэлл) [2007г., комеди ...
  • Гарри Поттер и тайная комната / Harry Potter and the Chamber of Secrets (Кр ...
  • Гарри Поттер и узник Азкабана / Harry Potter and the Prisoner of Azkaban (А ...
  • Гарри Поттер и кубок огня / Harry Potter and the Goblet of Fire (Майк Ньюэл ...
  • Гарри Поттер и орден Феникса / Harry Potter and the Order of the Phoenix (Д ...
  • Гарри Поттер и Особая уличная магия / Harry Potter and the Special Street M ...
  • Гарри Поттер и Партия Ленина / Harry Potter and the Party Of Lenin (Дэвид Й ...
  • Гарри Поттер и Особая уличная магия / Harry Potter and the Special Street M ...
  • Гарри Поттер и Дары смерти: Часть 1 / Harry Potter and the Deathly Hallows: ...
  • Гарри Поттер и Белое Золото I / Harry Potter and the White Gold I (Дэвид Йе ...
  • Информация
    Посетители, находящиеся в группе Гости, не могут оставлять комментарии к данной публикации.