вход на сайт

Имя пользователя :
Пароль :

Восстановление пароля Регистрация
Гарри Поттер и Белое Золото I / Harry Potter and the White Gold I (Дэвид Йейтс, 2010, Комедия) [BDRip 1080p, Дубляж (от Gremlin Creative Studio)]
Рейтинг:
(голосов: 1)



[img]{THEME}/images/logopost.png[/img]



Гарри Поттер и Белое Золото I / Harry Potter and the White Gold I

Год выпуска: 2010 (2011)
Страна: США
Производство: Gremlin Creative Studio
Жанр: Комедия

Режиссёр: Дэвид Йейтс / David Yates
В ролях: Гарри Поттер, Рыжий Петух, Стерва Грейнджер, Дарт Морт, Хагрид, Долбик и др.

Перевод:Дубляж
Озвучка: Gremlin Creative Studio

Описание: После смерти Ленина Гарри и его верным друзьям негде брать жизненноважное сырье. Поэтому они бросили школу и ударились в опасные поиски. Ведь единственным местом, где остался кокс, является тайный склад Дарт Морта...

7,80 (61826)
7,718 (32426)

Доп. информация: перевод от "Gremlin Creative Studio", создателей "Гарри Поттер и Особая уличная магия" , т.е. там полно всякой ругани, мата и пошлости. Ввиду этого, тем, кого не устраивает что-либо из вышесказанного, убедительная просьба НЕ КАЧАТЬ фильм, дабы не разводить демагогию в бестолковых постах.

MediaInfo ▼Text
Complete name : x:Гарри Поттер(7.1) и Белое Золото_BDRip.1080.mkv
Format : Matroska
Format version : Version 2
File size : 6.97 GiB
Duration : 2h 15mn
Overall bit rate : 7 342 Kbps
Encoded date : UTC 2011-11-11 08:34:47
Writing application : mkvmerge v4.4.0 (Die Wiederkehr) сборка от Oct 31 2010 21:52:48
Writing library : libebml v1.0.0 + libmatroska v1.0.0

Video
ID : 1
Format : AVC
Format/Info : Advanced Video Codec
Format profile : [email protected]
Format settings, CABAC : No
Format settings, ReFrames : 2 frames
Muxing mode : Header stripping
Codec ID : V_MPEG4/ISO/AVC
Duration : 2h 15mn
Bit rate : 7 000 Kbps
Width : 1 920 pixels
Height : 800 pixels
Display aspect ratio : 2.40:1
Frame rate : 23.976 fps
Color space : YUV
Chroma subsampling : 4:2:0
Bit depth : 8 bits
Scan type : Progressive
Bits/(Pixel*Frame) : 0.190
Stream size : 6.46 GiB (93%)
Title : GCS_HP7.1
Writing library : x264 core 116 r2074 2641b9e
Encoding settings : cabac=0 / ref=2 / deblock=1:0:0 / analyse=0x1:0x111 / me=umh / subme=6 / psy=1 / psy_rd=1.00:0.00 / mixed_ref=1 / me_range=16 / chroma_me=1 / trellis=0 / 8x8dct=0 / cqm=0 / deadzone=21,11 / fast_pskip=1 / chroma_qp_offset=-2 / threads=3 / sliced_threads=0 / nr=0 / decimate=1 / interlaced=0 / bluray_compat=0 / constrained_intra=0 / bframes=0 / weightp=0 / keyint=250 / keyint_min=23 / scenecut=40 / intra_refresh=0 / rc_lookahead=40 / rc=abr / mbtree=1 / bitrate=7000 / ratetol=1.0 / qcomp=0.60 / qpmin=0 / qpmax=69 / qpstep=4 / ip_ratio=1.40 / aq=1:1.00

Audio
ID : 2
Format : AC-3
Format/Info : Audio Coding 3
Mode extension : CM (complete main)
Muxing mode : Header stripping
Codec ID : A_AC3
Duration : 2h 15mn
Bit rate mode : Constant
Bit rate : 384 Kbps
Channel(s) : 2 channels
Channel positions : Front: L R
Sampling rate : 48.0 KHz
Bit depth : 16 bits
Compression mode : Lossy
Stream size : 373 MiB (5%)
Title : GCS_HP7.1._Sound
Language : Russian


Официальный сайт: Gremlin Creative Studio

Качество: BDRip 1080p
Продолжительность: 2:15:51

Формат: MKV
Видео кодек: H.264
Аудио кодек: AC3
Видео:1920x800 (2.40:1), 23.976 fps, ~7000 kbps avg, 0.19 bit/pixel
Аудио: AC-3, 48.0 KHz, 384 Kbps, Stereo (Front: L R), 16 bits



e6ba8cb901bed3aa21237e450436aeadbfff8cbbГарри Поттер и Белое Золото I / Harry Potter and the White Gold I (Дэвид Йейтс, 2010, Комедия) [BDRip 1080p, Дубляж (от Gremlin Creative Studio)] Гарри Поттер и Белое Золото I / Harry Potter and the White Gold I (Дэвид Йейтс, 2010, Комедия) [BDRip 1080p, Дубляж (от Gremlin Creative Studio)] " />

Аплоадер: Админ, дата: 15-04-2012, 19:12, торрент скачан: 359 раз

Понравилась раздача? Посмотрите эти:
  • Гарри Поттер и Дары смерти: Часть 1 / Harry Potter and the Deathly Hallows: ...
  • Гарри Поттер и Дары смерти: Часть II / Harry Potter and the Deathly Hallows ...
  • Гарри Поттер и Белое Золото I / Harry Potter and the White Gold I (Дэвид Йе ...
  • Гарри Поттер и Дары смерти: Часть II / Harry Potter and the Deathly Hallows ...
  • Гарри Поттер и Белое Золото II / Harry Potter and the White Gold II (Дэвид ...
  • Гарри Поттер и Белое Золото II / Harry Potter and the White Gold II (Дэвид ...
  • [3D] Гарри Поттер и Дары Смерти: часть 2 / Harry Potter and the Deathly Hal ...
  • Гарри Поттер и Дары смерти: Часть 1 / Harry Potter and the Deathly Hallows ...
  • Гарри Поттер и Дары Смерти. Часть 2 / Harry Potter and the Deathly Hallows. ...
  • Гарри Поттер: Коллекция / Harry Potter: Collection (Крис Коламбус, Альфонсо ...
  • [Дилогия] Гарри Поттер и Дары смерти / [Dilogy] Harry Potter and the Deathl ...
  • Гарри Поттер и Пленник Азкабана/Harry Potter and the Prisoner of Azkaban
  • [ENG] Дж. К. Ролинг. Гарри Поттер / J.K. Rowling. Harry Potter / (7 книг) ...
  • Все 7 книг о Гарри Поттере/Весь Harry Potter[1997-2007, doc, pdf]
  • Гарри Поттер и Партия Ленина / Harry Potter and the Party Of Lenin (Дэвид Й ...
  • Гарри Поттер и Турнир Смерти / Harry Potter 4 (Майк Ньюэлл) [2007г., комеди ...
  • Гарри Поттер и Особая уличная магия / Harry Potter and the Special Street M ...
  • Гарри Поттер и Партия Ленина / Harry Potter and the Party Of Lenin (Дэвид Й ...
  • Гарри Поттер и Особая уличная магия / Harry Potter and the Special Street M ...
  • Гарри Поттер и Белое Золото I / Harry Potter and the White Gold I (Дэвид Йе ...
  • Информация
    Посетители, находящиеся в группе Гости, не могут оставлять комментарии к данной публикации.