вход на сайт

Имя пользователя :
Пароль :

Восстановление пароля Регистрация
Мокрый коврик / Mortal Kombat (Пол У. С. Андерсон, Пародия, 1995) [DVDRip, Любительский двухголосый]
Рейтинг:
(голосов: 1)



[img]{THEME}/images/logopost.png[/img]



Мокрый коврик / Mortal Kombat

Год выпуска: 1995
Страна: США
Производство: New Line Cinema
Жанр: Пародия, комедия, фантастика, боевик, приключения

Режиссёр: Пол У. С. Андерсон
В ролях: Кристофер Ламберт, Робин Шоу, Линден Эшби, Кэри-Хироюки Тагава, Бриджит Уилсон, Талиса Сото, Тревор Годдар, Крис Касамасса

Перевод: Любительский (двухголосый)
Озвучка: смешной перевод ТО "Maugli pictures"
Субтитры: нет

Описание: В Китае проходит ежегодный фестиваль восточных единоборств, организаторами которого являются король Трансильвании - Имитатор и его верный слуга,фокусник-извращенец, Шар Сунь. Постоять за честь России-матушки были выбраны лучшие из лучших…

Доп. информация: Фильм для всех любителей прикольной озвучки в стиле Гоблин.



Качество: DVDRip
Продолжительность: 01:32:38

Формат: AVI
Видео кодек: XviD
Аудио кодек: AС3
Видео: 672x384 (1.75:1), 29.970 fps, XviD MPEG-4 ~973 kbps avg, 0.13 bit/pixel
Аудио: 44.100 kHz, 2 ch, ~128.00 kbps avg

MediaInfo ▼Format : AVI
Format/Info : Audio Video Interleave
File size : 735 MiB
Duration : 1h 32mn
Overall bit rate : 1 110 Kbps
Writing application : VirtualDubMod 1.5.4.1 (build 2178/release)
Writing library : VirtualDubMod build 2178/release
Video #0
ID : 0
Format : MPEG-4 Visual
Format profile : Advanced [email protected]
Format settings, BVOP : 1
Format settings, QPel : No
Format settings, GMC : No warppoints
Format settings, Matrix : Custom
Codec ID : XVID
Codec ID/Hint : XviD
Duration : 1h 32mn
Bit rate : 973 Kbps
Width : 672 pixels
Height : 384 pixels
Display aspect ratio : 16:9
Frame rate : 29.970 fps
Color space : YUV
Chroma subsampling : 4:2:0
Bit depth : 8 bits
Scan type : Progressive
Compression mode : Lossy
Bits/(Pixel*Frame) : 0.126
Stream size : 645 MiB (88%)
Writing library : XviD 64
Audio #1
ID : 1
Format : MPEG Audio
Format version : Version 1
Format profile : Layer 3
Mode : Joint stereo
Mode extension : MS Stereo
Codec ID : 55
Codec ID/Hint : MP3
Duration : 1h 32mn
Bit rate mode : Constant
Bit rate : 128 Kbps
Channel(s) : 2 channels
Sampling rate : 44.1 KHz
Compression mode : Lossy
Stream size : 84.8 MiB (12%)
Alignment : Split accross interleaves
Interleave, duration : 67 ms (2.00 video frames)
Interleave, preload duration : 500 ms
Writing library : LAME3.98r
Encoding settings : -m j -V 4 -q 2 -lowpass 17 -b 128



155d3a1938f33afa7f66f5432a386786ee8f6c02Мокрый коврик / Mortal Kombat (Пол У. С. Андерсон, Пародия, 1995) [DVDRip, Любительский двухголосый] Мокрый коврик / Mortal Kombat (Пол У. С. Андерсон, Пародия, 1995) [DVDRip, Любительский двухголосый] " />

Аплоадер: Админ, дата: 12-05-2012, 07:56, торрент скачан: 359 раз

Понравилась раздача? Посмотрите эти:
  • Вирус / Flu (Ким Сон Су, Драма, 2013) [HDTVRip, Любительский (двухголосый з ...
  • Мужество / Wymyk (Грег Зглински, драма, 2011) [DVDRip, Любительский (одного ...
  • Альбатрос / Albatross (Найал МакКормик, Драма, 2011) [DVDRip, Профессиональ ...
  • Колония / The Colony (Джефф Ренфро, фантастика, боевик, триллер, 2013) [DVD ...
  • Псы войны / The Dogs of War (Джон Ирвин, боевик, драма, приключения, военны ...
  • Смертельная битва / Mortal Kombat [1995, Боевик, Триллер, Фэнтези, Приключе ...
  • Смертельная битва / Mortal Kombat (Пол Андерсон, Фэнтази, Боевик, Приключен ...
  • Смертельная битва / Mortal Kombat (Пол У. С. Андерсон, фантастика, боевик, ...
  • Космические Мутанты / Mutant Aliens (Билл Плимптон, мультфильм, фантастика, ...
  • Новые парни турбо / New Kids Turbo (Штефен Хаарс, Боевик, комедия, 2010) [H ...
  • Тюремщик / Screwed (Рег Тревисс / Reg Traviss, Драма, 2011) [DVDRip , Люби ...
  • Смертельная битва [Дилогия] / Mortal Kombat [Dilogy] (Пол У. С. Андерсон, Д ...
  • Преследуемый / The Hunted (Дж.Ф. Лоутон, Боевик, Триллер, Драма, 1995) [DVD ...
  • Смертельная битва / Mortal Kombat (фантастика, боевик; Пол У. С. Андерсон, ...
  • Чемпионат Европы 2012 / Группа C / 1-й тур / Ирландия — Хорватия / ТРК Футб ...
  • Чемпионат Европы 2012 / Группа D / 1-й тур / Украина - Швеция / Спорт 1 [11 ...
  • Мифы и легенды: Новый альянс / Mitos y Leyendas La Nueva Alianza (Josй Luis ...
  • Неделя в NBA с В.Гомельским / НТВ+ [28.06.2011, SD, XviD, RU, SAT]
  • Скуби-Ду: Нападение Пантазаура / Scooby-Doo! Legend of the Phantosaur (Дугл ...
  • Неприкасаемые / Intouchables (Оливье Накаш, Эрик Толедано, Драма, 2011) [BD ...
  • Чемпионат Европы 2012 / Группа B / 1-й тур / Германия - Португалия / Спорт ...
  • Замёрзший мир / 2012: Ice Age (Трэвис Форт, фантастика, боевик, 2011) [HDRi ...
  • Все матчи Dream Team на Олимпийских играх в Барселоне [1992 г., Баскетбол, ...
  • Чемпионат России 2012-13 / 1-й тур / Мордовия - Локомотив / НТВ+ [Футбол, 2 ...
  • Олимпиада 2012 / Женщины, Мужчины / Плавание / Квалификация / НТВ+ [30.07.2 ...
  • Информация
    Посетители, находящиеся в группе Гости, не могут оставлять комментарии к данной публикации.