вход на сайт

Имя пользователя :
Пароль :

Восстановление пароля Регистрация
Жил-был тигр / Ek Tha Tiger (Кабир Кхан, боевик, триллер , 2012) [ HDRip, любительский (одноголосый) - zamez ]
Рейтинг:
(голосов: 1)



[img]{THEME}/images/logopost.png[/img]



Жил-был тигр / Ek Tha Tiger

Год выпуска:2012
Страна:Индия
Производство: Fantastic Films Ltd.
Жанр:боевик, триллер

Режиссёр:Кабир Кхан
В ролях:Салман Кхан, Катрина Каиф, Ранвир Шорей, Гириш Карнад...

Перевод: любительский (одноголосый) - zamez
Субтитры:отсутствуют

:
Шпион по прозвищу Тигр во время своей очередной миссии влюбляется в очаровательную танцовщицу Зою — помощницу ученого, который подозревается в продаже секретных технологий пакистанской разведке.


: 6.9

Сэмпл

Media Info ▼
Общее
Формат : AVI
Формат/Информация : Audio Video Interleave
Размер файла : 1,46 Гбайт
Продолжительность : 2 ч. 13 м.
Общий поток : 1577 Кбит/сек
Программа кодирования : VirtualDubMod 1.5.10.2 (build 2540/release)
Библиотека кодирования : VirtualDubMod build 2540/release

Видео
Идентификатор : 0
Формат : MPEG-4 Visual
Профиль формата : Advanced [email protected]
Параметр BVOP формата : 1
Параметр QPel формата : Нет
Параметр GMC формата : Без точки перехода
Параметр матрицы формата : Default (MPEG)
Идентификатор кодека : XVID
Идентификатор кодека/Подсказка : XviD
Продолжительность : 2 ч. 13 м.
Битрейт : 1183 Кбит/сек
Ширина : 704 пикселя
Высота : 304 пикселя
Соотношение сторон : 2,35:1
Частота кадров : 24,000 кадра/сек
Цветовое пространство : YUV
Субдискретизация насыщенности : 4:2:0
Битовая глубина : 8 бит
Тип развёртки : Прогрессивная
Метод сжатия : С потерями
Бит/(Пиксели*Кадры) : 0.230
Размер потока : 1,10 Гбайт (75%)
Библиотека кодирования : XviD 1.2.1 (UTC 2008-12-04)

Аудио
Идентификатор : 1
Формат : AC-3
Формат/Информация : Audio Coding 3
Расширение режима : CM (complete main)
Параметр Endianness формата : Big
Идентификатор кодека : 2000
Продолжительность : 2 ч. 13 м.
Вид битрейта : Постоянный
Битрейт : 384 Кбит/сек
Каналы : 6 каналов
Расположение каналов : Front: L C R, Side: L R, LFE
Частота : 48,0 КГц
Битовая глубина : 16 бит
Метод сжатия : С потерями
Размер потока : 365 Мбайт (24%)
Выравнивание : Разделение по промежуткам
Продолжительность промежутка : 42 мс. (1,00 видеокадр)
Время предзагрузки промежутка : 500 мс.


Качество:HDRip
Продолжительность:02:13:14

Формат:AVI
Видео кодек:XviD
Аудио кодек:AC3 5.1
Видео:MPEG-4 Visual at 1183 Кбит/сек; 704 x 304 (2.316) at 24.000 fps
Аудио:AC-3 at 384 Кбит/сек; 6 каналов, 48,0 КГц

Дата премьеры (мир):15 августа 2012




88592e2411fea919207427f2ad5cb7d9288a3393Жил-был тигр / Ek Tha Tiger (Кабир Кхан, боевик, триллер , 2012) [ HDRip, любительский (одноголосый) - zamez ] Жил-был тигр / Ek Tha Tiger (Кабир Кхан, боевик, триллер , 2012) [ HDRip, любительский (одноголосый) - zamez ] " />

Аплоадер: Админ, дата: 6-01-2013, 23:58, торрент скачан: 359 раз

Понравилась раздача? Посмотрите эти:
  • Бойфренд из будущего / About Time (Ричард Кёртис, Фантастика, драма, комеди ...
  • Одноклассники 2 / Grown Ups 2 (Деннис Дуган, Комедия, 2013) [BDRip, Професс ...
  • Призрачный патруль / R.I.P.D. (Роберт Швентке, фэнтези, боевик, комедия, кр ...
  • Прошлое / Le passé (Асгар Фархади, Драма, детектив , 2013) [HDRip, Авторски ...
  • Паприка / Paprika // Фильм 1, эпизод 1 (из 1) (2006) [BDRip, профессиональн ...
  • Кровью и потом: Анаболики / Pain & Gain (Майкл Бэй, криминал, комедия, трил ...
  • Миллион для чайников / The Brass Teapot (Рамаа Мосли, Фэнтези, триллер, ком ...
  • Глушь / Resurrection County (Матт Зеттел, Ужасы,триллер, 2008) [DVDRip, Про ...
  • Двенадцать бедствий на Рождество / The 12 Disasters of Christmas (Стивен Р. ...
  • Легенда о МорДу / The Legend of MorDu (Брайан Ларсен, Короткометражный, ска ...
  • Кажется, я люблю свою жену / I Think I Love My Wife (Крис Рок, Драма, мелод ...
  • Бог любви / God of Love (Люк Мэзени, Короткометражка, фэнтези, комедия, мел ...
  • Взлом: По ту сторону мира / .hack//Sekai no mukou ni // Фильм 1 (из 1) (20 ...
  • Идеальный Голос / Pitch Perfect (Джейсон Мур, Комедия, музыка, 2012) [HDRip ...
  • Капитан Гром и Святой Грааль / El Capitán Trueno y el Santo Grial (Антонио ...
  • Боец из трущоб / Gutter King (Кейт Алан Моррис / Keith Alan Morris, боевик, ...
  • Масс Эффект: Ушедший Герой / Mass Effect: Paragon Lost // Фильм 1 (из 1) ( ...
  • Кошмар / Nightmare / Qing Yan (Херман Яу, ужасы, триллер, 2012) [DVDRip, Лю ...
  • Ловцы забытых голосов / Hoshi wo Ou Kodomo (2011) [HDRip, любительский (одн ...
  • Нет мужчин - нет проблем / Without Men (Габриела Тальявини, Комедия, 2011) ...
  • Гениальный папа / Father of Invention (Трент Купер, Драма, комедия, 2010) [ ...
  • Глаз шторма / The Eye of the Storm (Фред Скеписи, Драма, 2011) [HDRip, Проф ...
  • Бюро находок : Потерянный и найденный / Lost and Found (Филип Хант, коротко ...
  • Человек из банки (Иван Кульнев, Комедия, 2012) [DVDRip, Не требуется]
  • Сдохни, Джон Такер / John Tucker Must Die (Бетти Томас, мелодрама, комедия, ...
  • Информация
    Посетители, находящиеся в группе Гости, не могут оставлять комментарии к данной публикации.