вход на сайт

Имя пользователя :
Пароль :

Восстановление пароля Регистрация
Цель жизни /Lyaksha (Фархан Ахтар, мелодрама, 2004) [DVDRip, Многоголосый закадровый, профессиональный]
Рейтинг:
(голосов: 1)



[img]{THEME}/images/logopost.png[/img]



♠Цель жизни / Lakshya♠
♠Год выпуска: 2004
♠Страна: Индия
♠Производство: Фархан Ахтар
♠Жанр: Драма, мелодрама, военный
♠Режиссёр: Джейсон Коннери
♠В ролях: Амитабх Баччан, Ритик Рошан, Прити Зинта, Ом Пури, Шарад С. Капур, Рахендранат Зутши, Сушант Сингх, Ранвир Шори и другие.
♠Перевод: Многоголосый закадровый, профессиональный
♠Субтитры: Отсутствуют

♠Описание: Каран — прожигатель жизни. Он живет на деньги отца и старшего брата, который ведет семейный бизнес. Каран привык лишь развлекаться с дружками и флиртовать с красавицей Роми. Однажды после просмотра боевика Каран вместе с друзьями решили пойти в армию, но служба оказалась слишком тяжелой, и Каран вернулся домой. Почувствовав, что окончательно потерял уважение своей семьи и Роми, он решает продолжить службу.

♠Рейтинг:♠Доп. информация: sample отсуствует
♠Качество: DVDRip
♠Продолжительность: 03:05:27 час.

♠Формат: MKV
♠Видео кодек: AVC
♠Аудио кодек: AC3
♠Видео: AVC, 720x3684:2:0, 1236 kbps, 23.976 fps, 0.195 bpp
♠Аудио: русскийAC35.148 kHz384 kbps

♠Премьера: 18.06.2004

MediaInfo ▼
Text
Общее
Уникальный идентификатор : 218108384578537186243050476130387976014 (0xA416259B1E61B97DBA7325441A955F4E)
Формат : Matroska
Версия формата : Version 2
Размер файла : 2,10 Гбайт
Продолжительность : 3 ч. 5 м.
Общий поток : 1621 Кбит/сек
Название фильма : = Цель жизни / Lakshya DVDRip =
Дата кодирования : UTC 2012-10-19 16:49:37
Программа кодирования : mkvmerge v3.3.0 (Language) gebaut am Mar 24 2010 14:59:24
Библиотека кодирования : libebml v0.8.0 + libmatroska v0.9.0

Видео
Идентификатор : 1
Формат : AVC
Формат/Информация : Advanced Video Codec
Профиль формата : [email protected]
Параметр CABAC формата : Да
Параметр ReFrames формата : 14 кадров
Идентификатор кодека : V_MPEG4/AVC
Продолжительность : 3 ч. 5 м.
Битрейт : 1236 Кбит/сек
Ширина : 720 пикселей
Высота : 368 пикселей
Соотношение сторон : 2,35:1
Соотношение сторон в оригинале : 2,35:1
Режим частоты кадров : Постоянный
Частота кадров : 23,976 кадра/сек
Цветовое пространство : YUV
Субдискретизация насыщенности : 4:2:0
Битовая глубина : 8 бит
Тип развёртки : Прогрессивная
Бит/(Пиксели*Кадры) : 0.195
Размер потока : 1,56 Гбайт (74%)
Заголовок : Цель жизни / Lakshya DVDRip by SC Kosmos
Библиотека кодирования : x264 core 128 r2216 198a7ea
Настройки программы : cabac=1 / ref=14 / deblock=1:-2:-2 / analyse=0x3:0x112 / me=umh / subme=10 / psy=1 / psy_rd=1.00:0.15 / mixed_ref=1 / me_range=32 / chroma_me=1 / trellis=2 / 8x8dct=1 / cqm=0 / deadzone=21,11 / fast_pskip=1 / chroma_qp_offset=-3 / threads=12 / lookahead_threads=2 / sliced_threads=0 / nr=0 / decimate=1 / interlaced=0 / bluray_compat=0 / constrained_intra=0 / bframes=12 / b_pyramid=2 / b_adapt=1 / b_bias=0 / direct=3 / weightb=1 / open_gop=0 / weightp=1 / keyint=230 / keyint_min=23 / scenecut=40 / intra_refresh=0 / rc=2pass / mbtree=0 / bitrate=1236 / ratetol=1.0 / qcomp=0.60 / qpmin=0 / qpmax=69 / qpstep=4 / cplxblur=20.0 / qblur=0.5 / ip_ratio=1.40 / pb_ratio=1.30 / aq=1:1.00 / zones=262140,266361,b=0.3
Язык : Hindi
Default : Нет
Forced : Нет
Основные цвета : BT.601 PAL
Характеристики трансфера : BT.470 System B, BT.470 System G
Коэффициенты матрицы : BT.601

Аудио
Идентификатор : 2
Формат : AC-3
Формат/Информация : Audio Coding 3
Расширение режима : CM (complete main)
Параметр Endianness формата : Big
Идентификатор кодека : AC3
Продолжительность : 3 ч. 5 м.
Вид битрейта : Постоянный
Битрейт : 384 Кбит/сек
Каналы : 6 каналов
Расположение каналов : Front: L C R, Side: L R, LFE
Частота : 48,0 КГц
Битовая глубина : 16 бит
Метод сжатия : С потерями
Размер потока : 509 Мбайт (24%)
Заголовок : MVO
Язык : Russian
Default : Да
Forced : Нет

Меню
00:00:00.000 : en:Chapter 01
00:04:23.267 : en:Chapter 02
00:11:02.601 : en:Chapter 03
00:15:16.868 : en:Chapter 04
00:20:31.868 : en:Chapter 05
00:30:54.769 : en:Chapter 06
00:35:29.069 : en:Ch
2a0aae91aefe31ca32f8a569ea91e2aca71924e0Цель жизни /Lyaksha (Фархан Ахтар, мелодрама, 2004) [DVDRip, Многоголосый закадровый, профессиональный] Цель жизни /Lyaksha (Фархан Ахтар, мелодрама, 2004) [DVDRip, Многоголосый закадровый, профессиональный] " />

Аплоадер: Админ, дата: 29-11-2012, 17:04, торрент скачан: 359 раз

Понравилась раздача? Посмотрите эти:
  • Мэрайа Мунди и шкатулка Мидаса / The Adventurer: The Curse of the Midas Box ...
  • Погнали! / Getaway (Кортни Соломон, боевик, криминал, 2013) [BDRip 1080p, П ...
  • Мэрайа Мунди и шкатулка Мидаса / The Adventurer: The Curse of the Midas Box ...
  • Интимные места (Наталья Меркулова, Алексей Чупов, драма, мелодрама, 2013) [ ...
  • Незнакомец внутри / The Stranger Within (Adam Neutzsky-Wulff, триллер, 2013 ...
  • Больше чем мёд / More Than Honey (документальный, 2012) [BDRip 720p, Профес ...
  • Астрал на улице Арлетт / 388 Arletta Avenue (Рэндолл Коул, Триллер, 2011) [ ...
  • Рикошет / Ricochet (Ник Гомез, драма, детектив, 2011) [BDRip-AVC, Профессио ...
  • Королевство кривых зеркал (Александр Роу, фэнтези, семейный, 1963) [BDRip-A ...
  • Даю год / I Give It a Year (Дэн Мазер, мелодрама, комедия, 2012) [BDRip-AVC ...
  • Джек Ричер / Jack Reacher (Кристофер МакКуорри, Боевик,триллер, криминал, д ...
  • Убей ради меня / Kill for Me (Майкл Гринспен, триллер, драма, 2013) [DVDRip ...
  • Суррогат / The Sessions (Бен Луин, Драма, 2012) [BDRip-AVC, Профессиональны ...
  • Побег / Flukt (Роар Утхауг, боевик, 2012) [DVDRip-AVC, Любительский (одного ...
  • Чемпионат Англии 2012-2013 / 25-й тур / Обзор / Суббота / BBC Sport [2013 г ...
  • Думай, как мужчина / Think Like a Man (Тим Стори, Мелодрама, комедия, 2012) ...
  • Челюсти 3D / Shark Night 3D ( Дэвид Р. Эллис, ужасы, 2011) [BDRip-AVC, Проф ...
  • Иностранный легион / La cité (Ким Нгуйен / Kim Nguyen, драма, 2010) [DVDRip ...
  • Полководцы / Tau ming chong (Питер Чан, Вэй мэн Йип, боевик, драма, военный ...
  • Тормоз / Brake (Гейб Торрес, триллер, криминал, 2011) [HDRip-AVC, Профессио ...
  • Заяц Ватанена / Le lievre de Vatanen (Марк Ривьер, фэнтези, драма, 2006) [D ...
  • ДухLess (Роман Прыгунов, Драма, 2012) [BDRip-AVC, Не требуется]
  • Облачный атлас / Cloud Atlas (Лана Вачовски, Том Тыквер, Энди Вачовски, фан ...
  • День учителя (Сергей Мокрицкий, драма, 2012) [DVDRip-AVC, Не требуется]
  • Рейдер (Всеволод Аравин, драма, криминал, 2011) [BDRip 720p, оригинал]
  • Информация
    Посетители, находящиеся в группе Гости, не могут оставлять комментарии к данной публикации.