вход на сайт

Имя пользователя :
Пароль :

Восстановление пароля Регистрация
Меня зовут Кхан (Режиссерская версия) / My Name Is Khan (Directors Cut) (Каран Джохар / Karan Johar, Мелодрама / Драма, 2010) [HDRip, Дублированный + Вставки (Одноголосный)]
Рейтинг:
(голосов: 1)



[img]{THEME}/images/logopost.png[/img]



Меня зовут Кхан / My Name Is Khan

Cлоган: «Обычный человек, необычайное путешествие... во имя любви»

Год выпуска: 2010
Страна: Индия
Выпущено: Fox Searchlight Pictures
Жанр: Драма, мелодрама

Режиссёр: Каран Джохар / Karan Johar
В главных ролях: Каджол, Шахрукх Кхан, Джимми Шергил, Танай Чхеда, Кристофер Б. Дункан, Стефани Хакабай, Дженнифер Экхолс, Соня Джехан, Хармони Блоссом, Карл Марино, Шэйн Харпер, Шитал Менон

Перевод: Профессиональный (полное дублирование) + вставки (Zamec)

О фильме: Ризван Kхан вырос в Мумбае в семье мусульман. В детстве ему был диагностирован «Синдром Аспергера» (форма высокофункционального аутизма, выражающаяся в слабой социальной адаптации). Повзрослевший Ризван переезжает в Сан-Франциско, где встречает индийскую мать-одиночку Мандиру, на которой впоследствии женится. Однако не все так гладко складывалось у Ризвана на пути в Америку...

Доп. информация: в тех местах, где дубляж отсутствует, наложена одноголосая озвучка zamez`a. Таким образом, в этом релизе нет провалов в переводе!



Качество: HDRip [ИсходникBDRip 1080p]
Продолжительность: 02:41:31
Формат: AVI
Видео кодек: XviD
Аудио кодек: MP3
Видео: 688x288 (2.39:1), 24.000 fps, XviD build 50 ~1158 kbps avg, 0.24 bit/pixel
Аудио: 48 kHz, MPEG Layer 3, 2 ch, ~128.00 kbps avg
Media Info ▼TextGeneral
Format : AVI
Format/Info : Audio Video Interleave
File size : 1.46 GiB
Duration : 2h 41mn
Overall bit rate : 1 296 Kbps

Video
ID : 0
Format : MPEG-4 Visual
Format profile : Advanced [email protected]
Format settings, BVOP : Yes
Format settings, QPel : No
Format settings, GMC : No warppoints
Format settings, Matrix : Default (H.263)
Codec ID : XVID
Codec ID/Hint : XviD
Duration : 2h 41mn
Bit rate : 1 158 Kbps
Width : 688 pixels
Height : 288 pixels
Display aspect ratio : 2.35:1
Frame rate : 24.000 fps
Color space : YUV
Chroma subsampling : 4:2:0
Bit depth : 8 bits
Scan type : Progressive
Bits/(Pixel*Frame) : 0.244
Stream size : 1.31 GiB (89%)
Writing library : XviD 1.2.1 (UTC 2008-12-04)

Audio
ID : 1
Format : MPEG Audio
Format version : Version 1
Format profile : Layer 3
Codec ID : 55
Codec ID/Hint : MP3
Duration : 2h 41mn
Bit rate mode : Constant
Bit rate : 128 Kbps
Channel(s) : 2 channels
Sampling rate : 48.0 KHz
Stream size : 148 MiB (10%)
Alignment : Aligned on interleaves
Interleave, duration : 42 ms (1.00 video frame)
Interleave, preload duration : 504 ms
Writing library : LAME3.98r
Encoding settings : -m s -V 4 -q 2 -lowpass 17 -b 128

Наши рипы / Набор в РГ / Стол заказов РГ / Новости РГ


b3ea04586fc83fd7590f661399d3dfeaccfb8bd3Меня зовут Кхан (Режиссерская версия) / My Name Is Khan (Directors Cut) (Каран Джохар / Karan Johar, Мелодрама / Драма, 2010) [HDRip, Дублированный + Вставки (Одноголосный)] Меня зовут Кхан (Режиссерская версия) / My Name Is Khan (Directors Cut) (Каран Джохар / Karan Johar, Мелодрама / Драма, 2010) [HDRip, Дублированный + Вставки (Одноголосный)] " />

Аплоадер: Админ, дата: 6-02-2011, 20:36, торрент скачан: 359 раз

Понравилась раздача? Посмотрите эти:
  • Король обмана / Tees Maar Khan (Фара Кхан, Боевик, драма, комедия, приключе ...
  • Меня зовут Кхан / My Name Is Khan (Каран Джохар, драма, мелодрама, 2010) [H ...
  • Студент года / Student of the Year (Каран Джохар / Karan Johar , мелодрама ...
  • Меня зовут Кхан / My Name Is Khan (Каран Джохар / Karan Johar, драма, мелод ...
  • [EN] Команда: На пути Аллаха / Takiye: Allah yolunda (2010, Бен Вербонг, тр ...
  • Амадей (Режиссерская версия) / Amadeus (Directors Cut) (Милош Форман, драма ...
  • И в печали и в радости ... / Kabhi Khushi Kabhie Gham... (Каран Джохар, мюз ...
  • Меня зовут Кхан / My Name Is Khan (Каран Джохар / Karan Johar, драма, мелод ...
  • Меня зовут Кхан / My Name Is Khan (Каран Джохар / Karan Johar, драма, мелод ...
  • Меня зовут Кхан / My Name Is Khan (Каран Джохар / Karan Johar, драма, мелод ...
  • Никогда не говори «Прощай» / Kabhi Alvida Naa Kehna (Каран Джохар, драма, м ...
  • Меня зовут Кхан / My Name Is Khan (Каран Джохар, мелодрама, драма, 2010) [H ...
  • Чемпионат Европы 2012 / Группа D / 1-й тур / Украина - Швеция / Спорт 1 [11 ...
  • (2010) VA / Меня зовут Кхан / My Name Is Khan (OST) [MP3, 192-320/CBR]
  • Tank Feat. T.I. & Kris Stephens / Compliments [2012, RnB,Hip-Hop, HDRip]
  • Никогда не говори «Прощай» / Kabhi Alvida Naa Kehna (Каран Джохар) [ 2006 г ...
  • Все в жизни бывает / Kuch Kuch Hota Hai (Каран Джохар, мелодрама, комедия, ...
  • Меня зовут Кхан / My Name Is Khan (Каран Джохар, мелодрама, драма, 2010) [H ...
  • Динара Султан / Найди меня [2010, Pop, HDRip]
  • Меня зовут Кхан / My Name Is Khan (Каран Джохар, мелодрама, драма, 2010) [H ...
  • Меня зовут Кхан / My Name Is Khan (Каран Джохар, драма, мелодрама, 2010) [H ...
  • Меня зовут Кхан / My Name Is Khan (Каран Джохар, драма, мелодрама, 2010г) [ ...
  • Каран и Арджун / Karan Arjun (Ракеш Рошан,мелодрама , 1995) [DVDRip,Професс ...
  • Мистер Ганджубас / Mr. Nice (Бернард Роуз, Драма, комедия, 2010)[HDRip, Про ...
  • Романтики / The Romantics (Галт Нидерхоффер, Драма, мелодрама, комедия, 201 ...
  • Информация
    Посетители, находящиеся в группе Гости, не могут оставлять комментарии к данной публикации.