вход на сайт

Имя пользователя :
Пароль :

Восстановление пароля Регистрация
Друг бедных / Dost Garibon Ka (С.П. Диксит, мелодрама, 1989) [VHSRip, Профессиональный (полное дублирование)]
Рейтинг:
(голосов: 1)



[img]{THEME}/images/logopost.png[/img]



Друг бедных / Dost Garibon Ka

Год выпуска: 1989
Страна: Индия
Производство: Кинокомпания "НАДИЯДВАЛА ЭНТЕРПРАЙЗИС"
Жанр: мелодрама

Режиссёр: С.П. Диксит
В ролях: Говинда, Нилам, Сумит Сайгал, Раза Мурад, Анджана Мумтаз, Ом Шивпури, Сатиш Шах, Дэн Дханоа, Джамуна, Садхна Сингх.

Перевод: Профессиональный (полное дублирование)
Субтитры: Отсутствуют

Описание:
Несчастья друзей-бедняков уже давно вызывали протест в благородной душе Виджая. Великая Любовь и большое несчастье превратили его в борца с несправедливостью. Эта борьба и прекрасная история любви сделали его легендой в сердцах людей…


Дополнительно:
MediaInfo ▼Text
Общее
Полное имя :D:РаздачаДруг бедныхDost Garibon Ka.avi
Формат :AVI
Размер :1.35 GiB
Продолжительность :02:14:12.880
Общий поток :1 439 Kbps
Программа кодирования :Lavf51.12.1

Видео
Идентификатор :0
Формат :MPEG-4 Visual
Профиль формата :[email protected]
Параметр BVOP формата :No
Параметр Qpel формата :No
Параметр GMC формата :0
Параметр Matrix формата :Default (H.263)
Идентификатор кодека :divx
Продолжительность :2h 14mn 12s 880ms
Битрейт :381 Kbps
Ширина :720 pixels
Высота :576 pixels
Соотношение сторон :1.250
Частота кадров :25.000 fps
Глубина цвета :8 bits
Подвыборка цветности :4:2:0
Цветовое пространство :YUV
Тип развертки :Progressive
Бит/(Пиксели*Кадры) :0.037
Размер потока :366 MiB (26%)
Библиотека кодирования :Lavc51.40.4

Аудио #1
Идентификатор :1
Формат :MPEG Audio
Идентификатор кодека :55
Продолжительность :00:33:59.376
Вид битрейта :Constant
Битрейт :128 Kbps
Канал(ы) :2 channels
Частота :48.0 KHz
Метод сжатия :Lossy
Размер потока :31.1 MiB (2%)Тех. данные:
Качество:VHSRip
Продолжительность:02:14:10 час

Формат: AVI
Видео кодек: Lavc
Аудио кодек: MPA1L3
Видео: 720 x 576 (5:4), 25.000 fps, 381 Kbps, 0.037 bit/pixel
Аудио : 48.0 KHz, , 2 channels (), 128 Kbps



50d0da8ca36bdec6a1dd1173104f8eb190fb9f25Друг бедных / Dost Garibon Ka (С.П. Диксит, мелодрама, 1989) [VHSRip, Профессиональный (полное дублирование)] Друг бедных / Dost Garibon Ka (С.П. Диксит, мелодрама, 1989) [VHSRip, Профессиональный (полное дублирование)] " />

Аплоадер: Админ, дата: 13-10-2012, 05:07, торрент скачан: 359 раз

Понравилась раздача? Посмотрите эти:
  • Айрик (Генрих Малян, драма, семейный, 1972) [DVDRip, Профессиональный (пол ...
  • Знахарь / Znachor (Ежи Гоффман, Драма, мелодрама, 1981) [DVDRip, Профессион ...
  • Всадник без головы (Владимир Вайншток, мелодрама, приключения, вестерн, 197 ...
  • Черный принц Аджуба (Шаши Капур, Геннадий Васильев, фэнтези, приключения, 1 ...
  • Тоска (Фрунзе Довлатян, драма, 1990) [DVDRip, Профессиональный (полное дубл ...
  • Украденный поезд (Владимир Янчев, драма, 1971) [DVDRip, Профессиональный (п ...
  • Диверсанты / The Demolition Squad (Хайрудин Крвавац, военный, 1967) [DVDRip ...
  • Черная гора (Александр Згуриди, драма, семейный, 1972) [DVDRip, Профессиона ...
  • Пропавшая грамота (Борис Ивченко, фэнтези, комедия, 1972) [DVDRip, Професси ...
  • Бабочка (Нелли Ненова, Гено Цулая, короткометражка, мелодрама, 1977) [TVRip ...
  • Термометр (Рамаз Шарабидзе, короткометражка, 1976) [TVRip, Профессиональный ...
  • Удача (Баадур Цуладзе, короткометражка, комедия, 1980) [TVRip, Профессионал ...
  • Я, бабушка, Илико и Илларион (Тенгиз Абуладзе, мелодрама, комедия, 1962) [D ...
  • Любовь для бедных ( Вадим Арапов, Мелодрама, 2012) [SATRip, Не требуются] ...
  • 31 июня (2 части из 2) (Леонид Квинихидзе, мюзикл, фэнтези, мелодрама, 1978 ...
  • Как украсть миллион / How to steal a million (Уильям Уайлер, комедия, крими ...
  • Смешная девчонка / Funny Girl (Уильям Уайлер , мюзикл, драма, мелодрама, ко ...
  • Фрида / Frida (Джули Тэймор, драма, мелодрама, биография, 2002) [DVDRip, Пр ...
  • Бравый солдат Швейк / Dobry vojak Svejk (Карел Стеклы, комедия, военный, 19 ...
  • Господин 420 / Shree 420 (Радж Капур, мюзикл, драма, мелодрама, 1955) [DVDR ...
  • Огни рампы / Limelight (Чарльз Чаплин, драма, мелодрама, комедия, музыка, 1 ...
  • Пассажирка / Pasazerka (Анджей Мунк, Витольд Лесевич, драма, военный, истор ...
  • Ганг, твои воды замутились / Ram Teri Ganga Maili (Радж Капур, мюзикл, мело ...
  • Пираты тихого океана / Piratii din Pacific (2 части из 2) (Николае Коржос, ...
  • Шансы есть / Chances Are (Эмиль Ардолино, фэнтези, мелодрама, комедия, 1989 ...
  • Информация
    Посетители, находящиеся в группе Гости, не могут оставлять комментарии к данной публикации.