вход на сайт

Имя пользователя :
Пароль :

Восстановление пароля Регистрация
Пуск торпеды / Torpedo Run (Джозеф Пивни, драма, военный, 1958) [DVDRip, Авторский (одноголосый, закадровый) Сергей Визгунов+оригинал]
Рейтинг:
(голосов: 1)



[img]{THEME}/images/logopost.png[/img]



Пуск торпеды / Torpedo Run

Год выпуска: 1958
Страна: США
Производство: Metro-Goldwyn-Mayer (MGM)
Жанр: драма, военный

Режиссёр: Джозеф Пивни
В ролях: Гленн Форд, Эрнест Боргнайн, Дайан Брюстер, Дин Джонс, Л. К. Джонс, Филип Обер, Ричард Карлайл, Фредд Уэйн, Дон Кифер, Роберт Харди

Перевод: Авторский (одноголосый, закадровый) Сергей Визгунов+оригинал
Субтитры: Отсутствуют

Описание:
Вторая мировая война. 1942 год. Американская подводная лодка в Тихом океане получает задание потопить японский авианосец. Ситуация осложняется тем, что авианосец сопровождает транспорт с американскими пленными, включая жену и дочь командира подводной лодки…


Дополнительно:
MediaInfo ▼Text
Общее
Полное имя :D:Пуск торпедыPusk torpedy.1958.avi
Формат :AVI
Размер :1.46 GiB
Продолжительность :01:31:19.728
Общий поток :2 293 Kbps
Программа кодирования :VirtualDubMod 1.5.10.2 (build 2540/release)
Библиотека кодирования :VirtualDubMod build 2540/release

Видео
Идентификатор :0
Формат :MPEG-4 Visual
Профиль формата :Advanced [email protected]
Параметр BVOP формата :2
Параметр Qpel формата :No
Параметр GMC формата :0
Параметр Matrix формата :Default (H.263)
Идентификатор кодека :XVID
Продолжительность :1h 31mn 19s 720ms
Битрейт :2 023 Kbps
Ширина :720 pixels
Высота :304 pixels
Соотношение сторон :2.368
Частота кадров :25.000 fps
Глубина цвета :8 bits
Подвыборка цветности :4:2:0
Цветовое пространство :YUV
Тип развертки :Progressive
Бит/(Пиксели*Кадры) :0.370
Размер потока :1.29 GiB (88%)
Библиотека кодирования :XviD0046

Аудио #1
Идентификатор :1
Формат :MPEG Audio
Идентификатор кодека :55
Продолжительность :01:31:19.728
Вид битрейта :Constant
Битрейт :128 Kbps
Канал(ы) :2 channels
Частота :48.0 KHz
Метод сжатия :Lossy
Размер потока :83.6 MiB (6%)

Аудио #2
Идентификатор :2
Формат
89fa81a056a026ca4501e6c275771c7848ab6c6eПуск торпеды / Torpedo Run (Джозеф Пивни, драма, военный, 1958) [DVDRip, Авторский (одноголосый, закадровый) Сергей Визгунов+оригинал] Пуск торпеды / Torpedo Run (Джозеф Пивни, драма, военный, 1958) [DVDRip, Авторский (одноголосый, закадровый) Сергей Визгунов+оригинал] " />

Аплоадер: Админ, дата: 4-01-2013, 19:40, торрент скачан: 359 раз

Понравилась раздача? Посмотрите эти:
  • Ад каннибалов 3 / Ultimo mondo cannibale (Руджеро Деодато, Ужасы, 1977) [DV ...
  • Все решается в среду / Big Wednesday (Джон Милиус, драма, комедия, спорт, 1 ...
  • Трудный путь в Александрию / Ice Cold in Alex (Дж. Ли Томпсон, драма, военн ...
  • Коллекционер / The Collector (Уильям Уайлер, триллер, драма, 1958) [DVDRip, ...
  • Зверь / Зверь войны / The Beast of War (Кевин Рейнольдс, Драма, военный, ис ...
  • Командир / Der Commander (Антонио Маргерити, боевик, военный, 1988) [DVDRip ...
  • Капитанская дочка (Владимир Каплуновский, драма, 1958) [DVDRip, Не требуетс ...
  • Привет вам от гориллы / Le gorille vous salue bien (Бернар Бордери, боевик, ...
  • Партизанская эскадрилья / Partizanska eskadrila (Хайрудин Крвавац, драма, в ...
  • Очистить территорию / Away All Boats (Джозеф Пивни, драма, военный, 1956) [ ...
  • Кошка на раскаленной крыше / Cat on a Hot Tin Roof (Ричард Брукс, драма, 19 ...
  • Любовники / Les amants (Луи Малль, драма, 1958) [DVDRip, Профессиональный ( ...
  • Ад для героев / Hell Is for Heroes (Дон Сигел, боевик, драма, военный, 1962 ...
  • Лиловая равнина / The Purple Plain (Роберт Пэрриш, боевик, драма, приключен ...
  • Госпожа Кровавый Снег / Shurayukihime (Тошия Фудзита, боевик, триллер, драм ...
  • Госпожа Кровавый Снег 2 / Shura-yuki-hime: Urami Renga (Тошия Фудзита, трил ...
  • Морские обезьяны / Umizaru (Эйитиро Хасуми, боевик, драма, 2004) [BDRip, Ав ...
  • Красавица Мемфиса / Memphis Belle (Майкл Кейтон-Джонс, боевик, драма, военн ...
  • Бог знает, мистер Аллисон / Heaven Knows, Mr. Allison (Джон Хьюстон, боевик ...
  • Захват поезда Пелэм 1-2-3 / The Taking of Pelham One Two Three (Джозеф Сард ...
  • Первый из немногих / История истребителя Спитфайера / The First of the Few ...
  • Розенкранц и Гильденштерн мертвы / Rosencrantz & Guildenstern Are Dead (Том ...
  • Урок любви / En lektion i karlek (Ингмар Бергман, драма, комедия, 1954) [DV ...
  • Миссия милосердия спасение рейса N 771 / Mercy Mission: The Rescue of Fligh ...
  • Медведи и я / The Bears and I (Бернард МакЭвети, драма, семейный, 1974) [DV ...
  • Информация
    Посетители, находящиеся в группе Гости, не могут оставлять комментарии к данной публикации.