вход на сайт

Имя пользователя :
Пароль :

Восстановление пароля Регистрация
Чудесное спасение белых скакунов / Miracle of the White Stallions (Артур Хиллер, драма, приключения, семейный, военный, 1963) [DVDRip, Профессиональный (многоголосый, закадровый) + оригинал]
Рейтинг:
(голосов: 1)



[img]{THEME}/images/logopost.png[/img]



Чудесное спасение белых скакунов / Miracle of the White Stallions

Год выпуска: 1963
Страна: США
Производство: Walt Disney Productions
Жанр: драма, приключения, семейный, военный

Режиссёр: Артур Хиллер
В ролях: Роберт Тейлор, Лилли Пальмер, Курд Юргенс, Эдди Альберт, Джеймс Франсискус, Джон Ларч, Бригитте Хорней, Филип Эбботт, Шарль Ренье, Эрик Шуманн

Перевод: Профессиональный (многоголосый, закадровый) + оригинал
Субтитры: Отсутствуют

Описание:
История спасения прекрасных белоснежных скакунов полковником Подяжским на излёте Второй мировой войны в Австрии.


Дополнительно:
MediaInfo ▼Text
Общее
Полное имя :K:Чудесное спасение белых скакуновChudesnoe spasenie belykh skakunov.1963.avi
Формат :AVI
Размер :812 MiB
Продолжительность :01:57:47.477
Общий поток :964 Kbps
Программа кодирования :VirtualDubModRus 1.5.10.2 (build 2540/release)
Библиотека кодирования :VirtualDubMod build 2540/release

Видео
Идентификатор :0
Формат :MPEG-4 Visual
Параметр BVOP формата :1
Параметр Qpel формата :No
Параметр GMC формата :0
Параметр Matrix формата :Default (H.263)
Идентификатор кодека :DX50
Продолжительность :1h 57mn 47s 477ms
Битрейт :705 Kbps
Ширина :512 pixels
Высота :384 pixels
Соотношение сторон :1.333
Частота кадров :23.976 fps
Глубина цвета :8 bits
Подвыборка цветности :4:2:0
Цветовое пространство :YUV
Тип развертки :Progressive
Бит/(Пиксели*Кадры) :0.150
Размер потока :594 MiB (73%)
Библиотека кодирования :DivX503b830p

Аудио #1
Идентификатор :1
Формат :MPEG Audio
Идентификатор кодека :55
Продолжительность :01:57:46.800
Вид битрейта :Constant
Битрейт :128 Kbps
Канал(ы) :2 channels
Частота :48.0 KHz
Метод сжатия :Lossy
Размер потока :108 MiB (13%)
Язык :English

Аудио #2
Идентификатор :2
Формат &nbs
3b3ee79c27a76c93c9eccff0bf2bdf947ae0f059Чудесное спасение белых скакунов / Miracle of the White Stallions (Артур Хиллер, драма, приключения, семейный, военный, 1963) [DVDRip, Профессиональный (многоголосый, закадровый) + оригинал] Чудесное спасение белых скакунов / Miracle of the White Stallions (Артур Хиллер, драма, приключения, семейный, военный, 1963) [DVDRip, Профессиональный (многоголосый, закадровый) + оригинал] " />

Аплоадер: Админ, дата: 3-01-2013, 07:41, торрент скачан: 359 раз

Понравилась раздача? Посмотрите эти:
  • Сотворившая чудо / The Miracle Worker (Артур Пенн, драма, биография, 1962) ...
  • Оптимистическая трагедия (Самсон Самсонов, драма, военный, история, 1963) [ ...
  • Королевский моряк / Single-Handed (Рой Боултинг, боевик, драма, военный, 19 ...
  • Командир / Il comandante (Паоло Хеуш, комедия, 1963) [DVDRip, Профессиональ ...
  • Похищенный / Kidnapped (Роберт Стивенсон, драма, приключения, семейный, 196 ...
  • Набалдашник и метла / Bedknobs and Broomsticks (Walt Disney Productions, пр ...
  • Процесс Жанны Д Арк / Proces de Jeanne dArc (Робер Брессон, драма, военный, ...
  • Риф Донована / Donovans Reef (Джон Форд, мелодрама, комедия, 1963) [DVDRip, ...
  • Постоялый двор шестой степени счастья / The Inn of the Sixth Happiness (Мар ...
  • Песчаные крысы / The Desert Rats (Роберт Уайз, боевик, драма, приключения, ...
  • Синдбад: Легенда семи морей / Sinbad of the Seven Seas (Энцо Дж. Кастеллари ...
  • Таинственный остров / Остров приключений / Mysterious Island (Сай Эндфилд, ...
  • Жить, чтобы жить / Vivre Pour Vivre (Клод Лелуш, драма, 1967) [DVDRip, Проф ...
  • Соблазненная и покинутая / Sedotta e abbandonata (Пьетро Джерми, драма, ком ...
  • Лиловая равнина / The Purple Plain (Роберт Пэрриш, боевик, драма, приключен ...
  • Бог знает, мистер Аллисон / Heaven Knows, Mr. Allison (Джон Хьюстон, боевик ...
  • Погоня за Бенджи / Benji the Hunted (Джо Кэмп, приключения, семейный, 1987) ...
  • Пассажирка / Pasazerka (Анджей Мунк, Витольд Лесевич, драма, военный, истор ...
  • Повелитель мух / Lord of the Flies (Питер Брук, триллер, драма, приключения ...
  • Прощай, король / Farewell to the King (Джон Милиус, боевик, драма, приключе ...
  • Где генерал? / Gdzie jest general… (Тадеуш Хмелевский, комедия, военный, 19 ...
  • Зулусы / Zulu (Сай Эндфилд, боевик, драма, приключения, военный, история, 1 ...
  • Хад / Hud (Мартин Ритт, драма, 1963) [DVDRip, Профессиональный (многоголосы ...
  • Миссия милосердия спасение рейса N 771 / Mercy Mission: The Rescue of Fligh ...
  • Медведи и я / The Bears and I (Бернард МакЭвети, драма, семейный, 1974) [DV ...
  • Информация
    Посетители, находящиеся в группе Гости, не могут оставлять комментарии к данной публикации.