вход на сайт

Имя пользователя :
Пароль :

Восстановление пароля Регистрация
След кота (Уильям А. Уэллмен, драма, вестерн, 1954) [DVDRip, Любительский (одноголосый, закадровый)]
Рейтинг:
(голосов: 1)



[img]{THEME}/images/logopost.png[/img]



След кота

Слоган

Год выпуска: 1954
Страна: США
Производство: Wayne-Fellows Productions
Жанр: драма, вестерн

Режиссёр: Уильям А. Уэллмен
В ролях: Роберт Митчум, Тереза Райт, Диана Линн, Тэб Хантер, Бьюла Бонди, Филип Тонг, Уильям Хоппер, Карл «Алфалфа» Свитцер

Перевод: Любительский (одноголосый, закадровый)
Субтитры: Отсутствуют

Описание:
События фильма происходят на высокогорном скотоводческом ранчо в 1890-х гг., когда на фоне охоты на пуму, задирающую скот, в семье ранчеров разворачивается склока за право управления собственностью.


Дополнительно:
MediaInfo ▼Text
Общее
Полное имя :J:След котаСлед кота.avi
Формат :AVI
Размер :1.46 GiB
Продолжительность :01:38:32.000
Общий поток :2 118 Kbps
Программа кодирования :VirtualDubMod 1.5.10.2 (build 2540/release)
Библиотека кодирования :VirtualDubMod build 2540/release

Видео
Идентификатор :0
Формат :MPEG-4 Visual
Профиль формата :Advanced [email protected]
Параметр BVOP формата :2
Параметр Qpel формата :No
Параметр GMC формата :0
Параметр Matrix формата :Custom
Идентификатор кодека :XVID
Продолжительность :1h 38mn 32s 0ms
Битрейт :1 661 Kbps
Ширина :720 pixels
Высота :288 pixels
Соотношение сторон :2.500
Частота кадров :25.000 fps
Глубина цвета :8 bits
Подвыборка цветности :4:2:0
Цветовое пространство :YUV
Тип развертки :Progressive
Бит/(Пиксели*Кадры) :0.320
Размер потока :1.14 GiB (78%)
Библиотека кодирования :XviD0050

Аудио #1
Идентификатор :1
Формат :AC-3
Формат/Информация :Audio Coding 3
Идентификатор кодека :2000
Продолжительность :01:38:32.000
Вид битрейта :Constant
Битрейт :448 Kbps
Канал(ы) :6 channels
Расположение каналов :Front: L C R, Side: L R, LFE
Частота :48.0 KHz
Битовая глубина :16 bits
Метод сжатия :Lossy
Размер потока :316 MiB (21%)



Тех. данные:
Качество:
6a4f04a846dbcdea06d7ed635985fa2cf618efbfСлед кота (Уильям А. Уэллмен, драма, вестерн, 1954) [DVDRip, Любительский (одноголосый, закадровый)] След кота (Уильям А. Уэллмен, драма, вестерн, 1954) [DVDRip, Любительский (одноголосый, закадровый)] " />

Аплоадер: Админ, дата: 22-12-2012, 20:39, торрент скачан: 359 раз

Понравилась раздача? Посмотрите эти:
  • Карлик Нос / Zwerg Nase (Карл-Хайнц Бальс, фэнтези, 1978) [DVDRip, Любитель ...
  • Сигнальщик / The Signalman (Лоуренс Гордон Кларк, короткометражка, ужасы, ...
  • Энн из Зеленых крыш / Anne of Green Gables (Кевин Салливан, драма, семейный ...
  • Дымовой сигнал / Smoke Signal (Джерри Хоппер, боевик, драма, вестерн, 1955) ...
  • Небесный остров / Island in the Sky (Уильям А. Уэллмен, драма, приключения, ...
  • Дружеское увещевание / Friendly Persuasion (Уильям Уайлер, драма, вестерн, ...
  • Партизанская эскадрилья / Partizanska eskadrila (Хайрудин Крвавац, драма, в ...
  • Румбурак / Rumburak (Вацлав Ворличек, семейный, 1985) [DVDRip, Любительский ...
  • Преждевременное погребение / Premature Burial (Роджер Корман, ужасы, драма, ...
  • Стрелок / Triggеrman (Джулио Базе, Теренс Хилл / Giulio Base, Terence Hill ...
  • Лиловая равнина / The Purple Plain (Роберт Пэрриш, боевик, драма, приключен ...
  • Нет мира под оливами / Non ce pace tra gli ulivi (Джузеппе де Сантис, драма ...
  • Преследуемый / Pursued (Рауль Уолш, триллер, вестерн, 1947) [DVDRip, Любите ...
  • Урок любви / En lektion i karlek (Ингмар Бергман, драма, комедия, 1954) [DV ...
  • Ростовщик / The Pawnbroker (Сидни Люмет, драма, 1964) [DVDRip, Любительский ...
  • Римлянка / La romana (Луиджи Дзампа, драма, 1954) [DVDRip, Любительский (од ...
  • Как раздражать людей / How to Irritate People (Йен Фордайсе, комедия, 1969) ...
  • Человек диких прерий / Man in the Wilderness (Ричард С. Сарафьян, приключен ...
  • Зов предков / The Call of the Wild (Уильям А. Уэллмен, боевик, драма, мелод ...
  • Медведи и я / The Bears and I (Бернард МакЭвети, драма, семейный, 1974) [DV ...
  • Информация
    Посетители, находящиеся в группе Гости, не могут оставлять комментарии к данной публикации.