вход на сайт

Имя пользователя :
Пароль :

Восстановление пароля Регистрация
Путешествие на дно моря / Voyage to the Bottom of the Sea (Ирвин Аллен / Irwin Allen, фантастика, приключения, 1961) [DVDRip, Профессиональный (многоголосый, закадровый)]
Рейтинг:
(голосов: 1)



[img]{THEME}/images/logopost.png[/img]



Путешествие на дно моря / Voyage to the Bottom of the Sea

Год выпуска: 1961
Страна: USA
Производство: 20th Century Fox Film Corporation, Windsor Productions
Жанр: фантастика, приключения

Режиссёр: Ирвин Аллен / Irwin Allen
В ролях:Уолтер Пиджон, Джоан Фонтейн, Барбара Иден, Петер Лорре, Роберт Стерлинг, Майкл Ансара, Фрэнки Авалон, Режис Туми, Джон Лител, Ховард МакНир...


Перевод: Профессиональный (многоголосый, закадровый)
Субтитры: Oтсутствуют

Описание: Вся планета объята страшным пожаром, вызванным внезапным «сумасшествием» пояса радиации Ван Аллена. Мужественный адмирал Нельсон, командир атомной подводной лодки, придумывает хитроумный план спасения человечества.
Он направляет подлодку в район Марианской впадины, чтобы запустить на орбиту ракету «Полярис» и взорвать очумевший «пояс». Эта миссия настолько опасна, что экипаж корабля готов поднять бунт против командира.
Качество: DVDRip
Продолжительность: 01:40:32

Формат: AVI
Видео кодек: XviD
Аудио кодек: MP3
Видео:672x288 (2.35:1), 25.000 fps, XviD ~ 899 kbps avg, 0.186 bit/pixel
Аудио: 48 kHz, Mpeg Layer 3, 2ch, 128 kbps/avg

MediaInfo ▼TextОбщее
Полное имя : Puteshestvie.na.dno.morya.1961.P.DVDRip.745MB.avi
Формат : AVI
Формат/Информация : Audio Video Interleave
Размер файла : 745 Мбайт
Продолжительность : 1 ч. 40 м.
Общий поток : 1036 Кбит/сек
Программа кодирования : VirtualDubMod 1.5.10.3 | www.virtualdub-fr.org || (build 2550/release)
Библиотека кодирования : VirtualDubMod build 2550/release
Видео
Идентификатор : 0
Формат : MPEG-4 Visual
Профиль формата : Advanced [email protected]
Параметр BVOP формата : 1
Параметр QPel формата : Нет
Параметр GMC формата : Без точки перехода
Параметр матрицы формата : Выборочная
Идентификатор кодека : XVID
Идентификатор кодека/Подсказка : XviD
Продолжительность : 1 ч. 40 м.
Битрейт : 899 Кбит/сек
Ширина : 672 пикселя
Высота : 288 пикселей
Соотношение сторон : 2,35:1
Частота кадров : 25,000 кадров/сек
Цветовое пространство : YUV
Субдискретизация насыщенности : 4:2:0
Битовая глубина : 8 бит
Тип развёртки : Прогрессивная
Метод сжатия : С потерями
Бит/(Пиксели*Кадры) : 0.186
Размер потока : 646 Мбайт (87%)
Библиотека кодирования : XviD 65
Аудио
Идентификатор : 1
Формат : MPEG Audio
Версия формата : Version 1
Профиль формата : Layer 3
Идентификатор кодека : 55
Идентификатор кодека/Подсказка : MP3
Продолжительность : 1 ч. 40 м.
Вид битрейта : Постоянный
Битрейт : 128 Кбит/сек
Каналы : 2 канала
Частота : 48,0 КГц
Метод сжатия : С потерями
Размер потока : 92,0 Мбайт (12%)
Выравнивание : Соединение по промежуткам
Продолжительность промежутка : 40 мс. (1,00 видеокадр)
Время предзагрузки промежутка : 504 мс.

bfe9b744145f4f6e8b74953eac7fe03fdd5eb82eПутешествие на дно моря / Voyage to the Bottom of the Sea (Ирвин Аллен / Irwin Allen, фантастика, приключения, 1961) [DVDRip, Профессиональный (многоголосый, закадровый)] Путешествие на дно моря / Voyage to the Bottom of the Sea (Ирвин Аллен / Irwin Allen, фантастика, приключения, 1961) [DVDRip, Профессиональный (многоголосый, закадровый)] " />

Аплоадер: Админ, дата: 12-01-2013, 15:09, торрент скачан: 359 раз

Понравилась раздача? Посмотрите эти:
  • Грязная кампания за честные выборы / The Campaign (Джей Роуч , Комедия,201 ...
  • Слежка / The Letter (Джей Ананья, Триллер, драма, 2012) [DVDRip, Профессион ...
  • Это - Англия. Год 1986 / This Is England 86 // Сезон 1, эпизоды с 1 по 4 (и ...
  • Двенадцать бедствий на Рождество / The 12 Disasters of Christmas (Стивен Р. ...
  • Киддо - супергрузовичок / Kiddo The Super Truck (Д. Нэйр, Мультфильм, 2002) ...
  • Отбой / Taps (Харольд Беккер, Драма, 1981) [DVDRip, Профессиональный (много ...
  • Путешествие на дно моря / Voyage to the Bottom of the Sea (Ирвин Аллен / I ...
  • Кажется, я люблю свою жену / I Think I Love My Wife (Крис Рок, Драма, мелод ...
  • Темный сахар / Brown Sugar (Рик Фамуйива, Драма, мелодрама, комедия, музыка ...
  • Огненный шторм / Firestorm (Дин Семлер, Боевик, Триллер, 1998) [DVDRip, Про ...
  • 1812: Уланская баллада (Олег Фесенко, приключения, 2012) [DVDRip, Не требуе ...
  • Бог любви / God of Love (Люк Мэзени, Короткометражка, фэнтези, комедия, мел ...
  • К-9: Рождественские приключения / K9 Adventures: A Christmas Tale (Бен Гурл ...
  • Кейси Джонс / Casey Jones (Иларион Бэнкс, Короткометражка, фэнтези, боевик, ...
  • Заместитель / Il supplente (Андреа Жублин, Короткометражка, комедия, 2007) ...
  • Покорить высоту / Take It to the Limit (Сэм Кит / Sam Kieth, семейный, 2000 ...
  • Светлячок. Воссоединение Коричневых плащей к 10 годовщине / Firefly 10th An ...
  • А что насчет тебя? / How About You (Энтони Бирн, Драма, комедия, 2007) [DVD ...
  • У дьявола нет лица / Plasterhead (Кевин Хиггинс / Kevin Higgins, ужасы, три ...
  • Детский душ / Baby Shower (Pablo Illanes, Ужасы, 2011) [DVDRip, Любительски ...
  • Крест / Cross (Патрик Дархэм, боевик, 2011) [DVDRip, Профессиональный (мног ...
  • Таинственный остров / Остров приключений / Mysterious Island (Сай Эндфилд, ...
  • Пять недель на воздушном шаре / Five Weeks in a Balloon (Ирвин Аллен, мелод ...
  • Пожирая живых / Ночь зомби / Zombie Night (Дэвид Дж. Фрэнсис, Ужасы, комеди ...
  • Фантастическое путешествие / Fantastic Voyage (Ричард Флайшер, фантастика, ...
  • Информация
    Посетители, находящиеся в группе Гости, не могут оставлять комментарии к данной публикации.