вход на сайт

Имя пользователя :
Пароль :

Восстановление пароля Регистрация
Партизанская эскадрилья / Partizanska eskadrila (Хайрудин Крвавац, драма, военный, история, 1979) [DVDRip, Любительский (одноголосый, закадровый)]
Рейтинг:
(голосов: 1)



[img]{THEME}/images/logopost.png[/img]



Партизанская эскадрилья / Partizanska eskadrila

Год выпуска: 1979
Страна: Югославия
Производство: Sutjeska Film
Жанр: драма, военный, история

Режиссёр: Хайрудин Крвавац
В ролях: Беким Фехмию, Велимир «Бата» Живоинович, Любиша Самарджич, Радош Баич, Радко Полич, Бранко Плеша, Фарук Беголли, Бранко Джурич, Jordanco Cevrevski, Злата Петкович

Перевод: Любительский (одноголосый, закадровый)
Субтитры: Отсутствуют

Описание:
Рассказ о летчиках Первой партизанской эскадрильи, защищавшей Югославию от фашистов.
1942 год. Югославские партизаны оказались под ударами немецкой авиации, безраздельно господствующими в небе захваченной Югославии, потому естественно, что и самих партизан не покидали мечты о появлении собственной авиации...


Дополнительно:
MediaInfo ▼Text
Общее
Полное имя :D:Партизанская эскадрильяПартизанская эскадрилья.avi
Формат :AVI
Размер :1.92 GiB
Продолжительность :02:04:03.320
Общий поток :2 220 Kbps
Программа кодирования :VirtualDubMod 1.5.10.2 (build 2540/release)
Библиотека кодирования :VirtualDubMod build 2540/release

Видео
Идентификатор :0
Формат :MPEG-4 Visual
Профиль формата :Advanced [email protected]
Параметр BVOP формата :2
Параметр Qpel формата :Yes
Параметр GMC формата :3
Параметр Matrix формата :Default (H.263)
Идентификатор кодека :XVID
Продолжительность :2h 4mn 3s 320ms
Битрейт :2 082 Kbps
Ширина :688 pixels
Высота :416 pixels
Соотношение сторон :1.654
Частота кадров :25.000 fps
Глубина цвета :8 bits
Подвыборка цветности :4:2:0
Цветовое пространство :YUV
Тип развертки :Progressive
Бит/(Пиксели*Кадры) :0.291
Размер потока :1.80 GiB (94%)
Библиотека кодирования :XviD0047

Аудио #1
Идентификатор :1
Формат :MPEG Audio
Идентификатор кодека :55
Продолжительность :02:04:03.312
Вид битрейта :Constant
Битрейт :128 Kbps
Канал(ы) :2 channels
Частота :48.0 KHz
Метод сжатия :Lossy
Размер потока :114 MiB (6%)



Тех. данные:
Качество:DVDRip
16f252f498c6bc208f30637bdaf3e4d8f08afb12Партизанская эскадрилья / Partizanska eskadrila (Хайрудин Крвавац, драма, военный, история, 1979) [DVDRip, Любительский (одноголосый, закадровый)] Партизанская эскадрилья / Partizanska eskadrila (Хайрудин Крвавац, драма, военный, история, 1979) [DVDRip, Любительский (одноголосый, закадровый)] " />

Аплоадер: Админ, дата: 26-01-2013, 20:20, торрент скачан: 359 раз

Понравилась раздача? Посмотрите эти:
  • Марш на Дрину / Mars na Drinu (Живорад «Жика» Митрович, боевик, драма, воен ...
  • Энн из Зеленых крыш / Anne of Green Gables (Кевин Салливан, драма, семейный ...
  • Одинокая женщина / Kobieta samotna (Агнешка Холланд, драма, 1981) [DVDRip, ...
  • Зверь / Зверь войны / The Beast of War (Кевин Рейнольдс, Драма, военный, ис ...
  • Бой под Соколом (Александр Разумный, военный, 1942) [DVDRip, Не требуется]
  • Вчерашний враг / Yesterdays Enemy (Вэл Гест, драма, военный, 1959) [DVDRip, ...
  • Свидетель обвинения / Witness for the Prosecution (Билли Уайлдер, драма, де ...
  • Диверсанты / The Demolition Squad (Хайрудин Крвавац, военный, 1967) [DVDRip ...
  • Оптимистическая трагедия (Самсон Самсонов, драма, военный, история, 1963) [ ...
  • Румбурак / Rumburak (Вацлав Ворличек, семейный, 1985) [DVDRip, Любительский ...
  • След кота (Уильям А. Уэллмен, драма, вестерн, 1954) [DVDRip, Любительский ( ...
  • Последняя пуля / The Last Bullet (Майкл Паттинсон, боевик, драма, военный, ...
  • Пуск торпеды / Torpedo Run (Джозеф Пивни, драма, военный, 1958) [DVDRip, Ав ...
  • Преждевременное погребение / Premature Burial (Роджер Корман, ужасы, драма, ...
  • Черное солнце: Бойня в Нанкине / Hei tai yang Nan Jing da tu sha (Тун Фей М ...
  • Лиловая равнина / The Purple Plain (Роберт Пэрриш, боевик, драма, приключен ...
  • Бог знает, мистер Аллисон / Heaven Knows, Mr. Allison (Джон Хьюстон, боевик ...
  • Нет мира под оливами / Non ce pace tra gli ulivi (Джузеппе де Сантис, драма ...
  • Розенкранц и Гильденштерн мертвы / Rosencrantz & Guildenstern Are Dead (Том ...
  • Урок любви / En lektion i karlek (Ингмар Бергман, драма, комедия, 1954) [DV ...
  • Ростовщик / The Pawnbroker (Сидни Люмет, драма, 1964) [DVDRip, Любительский ...
  • Как раздражать людей / How to Irritate People (Йен Фордайсе, комедия, 1969) ...
  • Эмбрион охотится тайно / Taiji ga mitsuryo suru toki (Кодзи Вакамацу, драма ...
  • Адмирал Нахимов (Всеволод Пудовкин, драма, военный, биография, история, 194 ...
  • Медведи и я / The Bears and I (Бернард МакЭвети, драма, семейный, 1974) [DV ...
  • Информация
    Посетители, находящиеся в группе Гости, не могут оставлять комментарии к данной публикации.