вход на сайт

Имя пользователя :
Пароль :

Восстановление пароля Регистрация
С террасы / From the Terrace (Марк Робсон, драма, мелодрама, 1960) [DVDRip, Профессиональный (многоголосый, закадровый) ОРТ + оригинал]
Рейтинг:
(голосов: 1)



[img]{THEME}/images/logopost.png[/img]



С террасы / From the Terrace

Год выпуска: 1960
Страна: США
Производство: Linebrook
Жанр: драма, мелодрама

Режиссёр: Марк Робсон
В ролях: Пол Ньюман, Джоэнн Вудворд, Мирна Лой, Ина Балин, Леон Эймс, Элизабет Аллен, Барбара Иден, Джордж Гриззард, Патрик О’Нил, Феликс Эйлмер

Перевод: Профессиональный (многоголосый, закадровый) ОРТ + оригинал
Субтитры: Отсутствуют

Описание:
История погони человека за успехом и богатством. Герой взбирается по лестнице, ведущей на вершины Уолл Стрита, пренебрегает женой, жертвует своей цельностью, но в конце, по законам американской попкультуры, переживает болезненное прозрение, так называемый «момент истины».


Дополнительно:
MediaInfo ▼Text
Общее
Полное имя :K:С террасыS terrasy.1960.avi
Формат :AVI
Размер :1.46 GiB
Продолжительность :02:24:03.480
Общий поток :1 449 Kbps
Программа кодирования :VirtualDubModRus 1.5.10.2 (build 2540/release)

Видео
Идентификатор :0
Формат :MPEG-4 Visual
Профиль формата :Advanced [email protected]
Параметр BVOP формата :2
Параметр Qpel формата :No
Параметр GMC формата :0
Параметр Matrix формата :Default (MPEG)
Идентификатор кодека :XVID
Продолжительность :2h 24mn 3s 468ms
Битрейт :1 180 Kbps
Ширина :720 pixels
Высота :304 pixels
Соотношение сторон :2.368
Частота кадров :23.976 fps
Глубина цвета :8 bits
Подвыборка цветности :4:2:0
Цветовое пространство :YUV
Тип развертки :Progressive
Бит/(Пиксели*Кадры) :0.225
Размер потока :1.19 GiB (81%)
Библиотека кодирования :XviD0046

Аудио #1
Идентификатор :1
Формат :MPEG Audio
Идентификатор кодека :55
Продолжительность :02:24:03.480
Вид битрейта :Constant
Битрейт :128 Kbps
Канал(ы) :2 channels
Частота :48.0 KHz
Метод сжатия :Lossy
Размер потока :132 MiB (9%)

Аудио #2
Идентификатор :2
Формат :MPEG Audio
Идентификатор кодека  
578c015e42edc4a577c408ea6bf92fc37d0865a1С террасы / From the Terrace (Марк Робсон, драма, мелодрама, 1960) [DVDRip, Профессиональный (многоголосый, закадровый) ОРТ + оригинал] С террасы / From the Terrace (Марк Робсон, драма, мелодрама, 1960) [DVDRip, Профессиональный (многоголосый, закадровый) ОРТ + оригинал] " />

Аплоадер: Админ, дата: 24-01-2013, 03:25, торрент скачан: 359 раз

Понравилась раздача? Посмотрите эти:
  • Вечерние посетители / Les visiteurs du soir (Марсель Карне, фэнтези, драма, ...
  • Заверните мне норку / Make Mine Mink (Роберт Эшер, комедия, 1960) [DVDRip, ...
  • Поездка в Америку / Coming to America (Джон Лэндис, драма, мелодрама, комед ...
  • Конец любви / The End of Love (Марк Веббер, драма, 2012) [WEB-DLRip, Профес ...
  • На Золотом пруду / On Golden Pond (Марк Райделл, Драма, мелодрама, 1981) [D ...
  • Егерь (Герман Ливанов, драма, экранизация, 1960) [DVDRip, Не требуется]
  • Похищенный / Kidnapped (Роберт Стивенсон, драма, приключения, семейный, 196 ...
  • Джентельменское соглашение / Gentlemans Agreement (Элиа Казан, драма, мелод ...
  • Экспресс Фон Райена / Von Ryans Express (Марк Робсон, боевик, приключения, ...
  • С днем рождения, Ванда Джун! / Happy Birthday, Wanda June (Марк Робсон, дра ...
  • Постоялый двор шестой степени счастья / The Inn of the Sixth Happiness (Мар ...
  • Эль Сид / El Cid (Энтони Манн, боевик, драма, мелодрама, военный, биография ...
  • Кошка на раскаленной крыше / Cat on a Hot Tin Roof (Ричард Брукс, драма, 19 ...
  • Потопить "Бисмарк" / Sink the Bismarck (Льюис Гилберт, боевик, драма, военн ...
  • Баттерфилд 8 / Butterfield 8 (Дэниэл Манн, драма, 1960) [DVDRip, Профессион ...
  • Любовники / Les amants (Луи Малль, драма, 1958) [DVDRip, Профессиональный ( ...
  • Пэйтон Плейс / Peyton Place (Марк Робсон, драма, мелодрама, 1957) [DVDRip, ...
  • Жить, чтобы жить / Vivre Pour Vivre (Клод Лелуш, драма, 1967) [DVDRip, Проф ...
  • Дыхание скандала / A Breath of Scandal (Майкл Кёртиц, драма, мелодрама, ком ...
  • Лето с Моникой / Sommaren med Monika (Ингмар Бергман, драма, мелодрама, 195 ...
  • К северу от Аляски / North to Alaska (Генри Хэтэуэй, вестерн, комедия, 1960 ...
  • Пожнешь бурю / Inherit the Wind (Стэнли Крамер, драма, 1960) [DVDRip, Профе ...
  • Дьявольское око / Djдvulens цga (Ингмар Бергман, фэнтези, драма, комедия, 1 ...
  • Дикие дни / A Fei jingjyuhn (Вонг Кар-Вай, драма, мелодрама, криминал, 1990 ...
  • Уик-энд / Week End (Жан-Люк Годар, драма, комедия, 1967) [DVDRip, Профессио ...
  • Информация
    Посетители, находящиеся в группе Гости, не могут оставлять комментарии к данной публикации.