вход на сайт

Имя пользователя :
Пароль :

Восстановление пароля Регистрация
Голубая Лагуна / The Blue Lagoon (Рэндал Клайзер, драма, мелодрама, приключения, 1980) [BDRip-AVC, Профессиональный (многоголосый, закадровый), Оригинал (английский), Sub [Eng]]
Рейтинг:
(голосов: 1)



[img]{THEME}/images/logopost.png[/img]



«Голубая Лагуна / The Blue Lagoon»

¤Красивая история о любви...¤

Информация о фильме
Год выпуска: 1980
Страна: США
Производство: Columbia Pictures Corporation
Жанр: драма, мелодрама, приключения

Режиссёр: Рэндал Клайзер / Randal Kleiser
В ролях: Брук Шилдс, Кристофер Аткинс, Лео МакКерн, Уильям Дэниелс, Элва Джозефсон, Гленн Коэн, Алан Хопгуд, Гас Меркюрио, Джефри Клайзер, Брэдли Прайс, Чад Тиммерман, Герт Джейкоби, Алекс Хэмилтон, Ричард Эвансон

Перевод: Профессиональный (многоголосый, закадровый), Оригинал (английский)
Озвучка: не известно
Субтитры: Sub [Eng] (вшитые, отключаемые)

Описание
***
Страшное кораблекрушение, счастливое спасение и необитаемый остров положили начало одной из самых красивых и трогательных историй о любви. Долгие годы юная пара живет на прекрасном тропическом острове. Но по мере того, как они взрослеют, в их сердцах зарождается возвышенная, красивая, как окружающий мир, любовь.

***


Тех.Данные
Качество: BDRip-AVC [рип с BDRemux 1080p]
Продолжительность: ~ 01:45:06 часа

Формат: Matroska-MKV-
Видео кодек: AVC [email protected]
Аудио кодек: Audio Coding 3
Видео: 1024x554 (16:9), 23.976 fps, AVC ~3000 kbps avg, 0.221 bit/pixel
Аудио: Аудио: 48.00 kHz, AC3, 2/0 (L,R,) ch, ~192.00 kbps avgРусский
Аудио: Аудио: 48 kHz, AC3, 2/3 (L,C,R,l,r) + L,F,E ch, ~448 kbps avgАнглийский

MediaInfo ▼TextОбщее
Уникальный идентификатор : 224016157337591295782308648311053717811 (0xA887F14A955C317A9BF891DB21B99133)
Полное имя : D:DownloadsГолубая Лагуна.1980.BDRip-AVC.mkv
Формат : Matroska
Версия формата : Version 2
Размер файла : 2,66 Гбайт
Продолжительность : 1 ч. 45 м.
Общий поток : 3630 Кбит/сек
Название фильма : Релиз от NovaLan (alek7120)
Дата кодирования : UTC 2013-01-15 16:56:06
Программа кодирования : mkvmerge v5.6.0 (Kenya Kane) built on May 27 2012 16:44:04
Библиотека кодирования : libebml v1.2.3 + libmatroska v1.3.0

Видео
Идентификатор : 1
Формат : AVC
Формат/Информация : Advanced Video Codec
Профиль формата : [email protected]
Параметр CABAC формата : Да
Параметр ReFrames формата : 8 кадров
Идентификатор кодека : V_MPEG4/ISO/AVC
Продолжительность : 1 ч. 45 м.
Битрейт : 3000 Кбит/сек
Ширина : 1024 пикселя
Высота : 554 пикселя
Соотношение сторон : 16:9
Частота кадров : 23,976 кадра/сек
Цветовое пространство : YUV
Субдискретизация насыщенности : 4:2:0
Битовая глубина : 8 бит
Тип развёртки : Прогрессивная
Бит/(Пиксели*Кадры) : 0.221
Размер потока : 2,14 Гбайт (80%)
Библиотека кодирования : x264 core 125 r2208 d9d2288
Настройки программы : cabac=1 / ref=8 / deblock=1:-2:-2 / analyse=0x3:0x133 / me=umh / subme=11 / psy=1 / psy_rd=1.00:0.15 / mixed_ref=1 / me_range=48 / chroma_me=1 / trellis=2 / 8x8dct=1 / cqm=0 / deadzone=21,11 / fast_pskip=1 / chroma_qp_offset=-3 / threads=6 / lookahead_threads=1 / sliced_threads=0 / nr=0 / decimate=0 / interlaced=0 / bluray_compat=0 / constrained_intra=0 / bframes=8 / b_pyramid=2 / b_adapt=2 / b_bias=0 / direct=3 / weightb=1 / open_gop=1 / weightp=2 / keyint=240 / keyint_min=23 / scenecut=40 / intra_refresh=0 / rc_lookahead=50 / rc=2pass / mbtree=1 / bitrate=3000 / ratetol=1.0 / qcomp=0.60 / qpmin=0 / qpmax=69 / qpstep=4 / cplxblur=20.0 / qblur=0.5 / ip_ratio=1.40 / aq=1:1.00
Язык : English
Default : Да
Forced : Нет

Аудио #1
Идентификатор : 2
Формат : AC-3
Формат/Информация : Audio Coding 3
Расширение режима : CM (complete main)
Идентификатор кодека : A_AC3
Продолжительность : 1 ч. 45 м.
Вид битрейта : Постоянный
Битрейт : 192 Кбит/сек
Каналы : 2 канала
Расположение каналов : Front: L R
Частота : 48,0 КГц
Битовая глубина : 16 бит
Метод сжатия : С потерями
Размер потока : 144 Мбайт (5%)
Заголовок : Профессиональный многоголосый
Язык : Russian
Default : Да
Forced : Нет

Аудио #2
Идентификатор : 3
Форм
2ae45f1b4462f78c7ca2ab9b47e0540a42fc7d7eГолубая Лагуна / The Blue Lagoon (Рэндал Клайзер, драма, мелодрама, приключения, 1980) [BDRip-AVC, Профессиональный (многоголосый, закадровый), Оригинал (английский), Sub [Eng]] Голубая Лагуна / The Blue Lagoon (Рэндал Клайзер, драма, мелодрама, приключения, 1980) [BDRip-AVC, Профессиональный (многоголосый, закадровый), Оригинал (английский), Sub [Eng]] " />

Аплоадер: Админ, дата: 18-01-2013, 12:51, торрент скачан: 359 раз

Понравилась раздача? Посмотрите эти:
  • Мэрайа Мунди и шкатулка Мидаса / The Adventurer: The Curse of the Midas Box ...
  • Погнали! / Getaway (Кортни Соломон, боевик, криминал, 2013) [BDRip 1080p, П ...
  • Погнали! / Getaway (Кортни Соломон, боевик, криминал, 2013) [BDRip-AVC, Про ...
  • Филадельфия / Philadelphia (Джонатан Демме, Драма, 1993) [BDRip-AVC, Профес ...
  • Башня / The Tower (Чи-хун Ким, драма, 2012) [BDRip-AVC, Любительский (двухг ...
  • Летучий отряд Скотланд-Ярда / The Sweeney (Ник Лав, Боевик, драма, криминал ...
  • Залив / The Bay (Барри Левинсон, Ужасы, фантастика, триллер, 2012) [BDRip-A ...
  • Порочные игры / Stoker (Пак Чхан Ук, Триллер, драма, детектив, 2013) [BDRip ...
  • Порочные игры / Stoker (Пак Чхан Ук, Триллер, драма, детектив, 2013) [BDRip ...
  • Голливудский мусор / Garbage (Филипп Волкен, драма, комедия, 2013) [HDTVRip ...
  • Больше, чем любовь / A Lot Like Love (Найджел Коул, Драма, мелодрама, комед ...
  • Рикошет / Ricochet (Ник Гомез, драма, детектив, 2011) [BDRip-AVC, Профессио ...
  • Запретная любовь / The Edge of Love (Джон Мэйбери, Драма, мелодрама, военны ...
  • Даю год / I Give It a Year (Дэн Мазер, мелодрама, комедия, 2012) [BDRip-AVC ...
  • АББА: фильм / ABBA: The Movie (документальный, драма, музыка, 1977) [BDRip- ...
  • Голубая лагуна / The Blue Lagoon (Рэндал Клайзер, Драма, мелодрама, приключ ...
  • Подземелье драконов / Dungeons & Dragons (Кортни Соломон, Фэнтези, боевик, ...
  • Крученый мяч / Trouble with the Curve (Роберт Лоренц, Драма, 2012) [BDRip-A ...
  • Суррогат / The Sessions (Бен Луин, Драма, 2012) [BDRip-AVC, Профессиональны ...
  • Ошибка телохранителя / The Girl from the Naked Eye (Дэвид Рен, боевик, трил ...
  • Думай, как мужчина / Think Like a Man (Тим Стори, Мелодрама, комедия, 2012) ...
  • Образец 47 / Marvel One-Shot: Item 47 (Луис Д’Эспозито, короткометражка, фа ...
  • Эд Вуд / Ed Wood (Тим Бёртон, драма, комедия, биография, 1994) [BDRip-AVC, ...
  • Голубая лагуна / The Blue Lagoon (Рэндал Клейзер, Приключения/Любовный рома ...
  • Голубая лагуна / The Blue Lagoon (Рэндал Клайзер, драма, мелодрама, приключ ...
  • Информация
    Посетители, находящиеся в группе Гости, не могут оставлять комментарии к данной публикации.