вход на сайт

Имя пользователя :
Пароль :

Восстановление пароля Регистрация
Риф Донована / Donovans Reef (Джон Форд, мелодрама, комедия, 1963) [DVDRip, Профессиональный (одноголосый, закадровый)+оригинал]
Рейтинг:
(голосов: 1)



[img]{THEME}/images/logopost.png[/img]



Риф Донована / Donovans Reef

Год выпуска: 1963
Страна: США
Производство: John Ford Productions, Paramount Pictures
Жанр: мелодрама, комедия

Режиссёр: Джон Форд
В ролях: Джон Уэйн, Ли Марвин, Элизабет Аллен, Джек Уорден, Сизар Ромеро, Дик Форан, Дороти Ламур, Марсель Далио, Майк Мазурки, Жаклин Малуф

Перевод: Профессиональный (одноголосый, закадровый)+оригинал
Субтитры: Отсутствуют

Описание:
Трое американских моряков после войны остаются жить на тропическом тихоокеанском островке. Их спокойная размеренная жизнь нарушается, когда на остров в поисках своего отца приезжает юная англичанка Амелия.


Дополнительно:
MediaInfo ▼Text
Общее
Полное имя :D:Риф Донована1963_Donovans.Reef.DVDRip_rus.avi
Формат :AVI
Размер :1.42 GiB
Продолжительность :01:48:33.549
Общий поток :1 875 Kbps
Программа кодирования :VirtualDubMod 1.5.10.2 (build 2542/release)
Библиотека кодирования :VirtualDubMod build 2542/release

Видео
Идентификатор :0
Формат :MPEG-4 Visual
Профиль формата :Advanced [email protected]
Параметр BVOP формата :1
Параметр Qpel формата :No
Параметр GMC формата :0
Параметр Matrix формата :Custom
Идентификатор кодека :XVID
Продолжительность :1h 48mn 33s 549ms
Битрейт :1 605 Kbps
Ширина :624 pixels
Высота :352 pixels
Соотношение сторон :1.773
Частота кадров :23.976 fps
Глубина цвета :8 bits
Подвыборка цветности :4:2:0
Цветовое пространство :YUV
Тип развертки :Progressive
Бит/(Пиксели*Кадры) :0.305
Размер потока :1.22 GiB (86%)
Библиотека кодирования :XviD0046

Аудио #1
Идентификатор :1
Формат :MPEG Audio
Идентификатор кодека :55
Продолжительность :01:48:33.336
Вид битрейта :Constant
Битрейт :128 Kbps
Канал(ы) :2 channels
Частота :48.0 KHz
Метод сжатия :Lossy
Размер потока :99.4 MiB (7%)
Язык :English / English

Аудио #2
Идентификатор  
9f10b29d010700ccf415eabcc1b71260e35cd355Риф Донована / Donovans Reef (Джон Форд, мелодрама, комедия, 1963) [DVDRip, Профессиональный (одноголосый, закадровый)+оригинал] Риф Донована / Donovans Reef (Джон Форд, мелодрама, комедия, 1963) [DVDRip, Профессиональный (одноголосый, закадровый)+оригинал] " />

Аплоадер: Админ, дата: 4-01-2013, 18:04, торрент скачан: 359 раз

Понравилась раздача? Посмотрите эти:
  • Воздыхатель / Le soupirant (Пьер Этекс, комедия, 1962) [DVDRip, Профессиона ...
  • Сингапур / Singapore (Джон Брам, боевик, мелодрама, криминал, приключения, ...
  • Все решается в среду / Big Wednesday (Джон Милиус, драма, комедия, спорт, 1 ...
  • Тихий человек / The Quiet Man (Джон Форд, драма, мелодрама, комедия, 1952) ...
  • Поездка в Америку / Coming to America (Джон Лэндис, драма, мелодрама, комед ...
  • Однажды на матрасе / Once Upon a Mattress (Кэтлин Маршалл, мюзикл, мелодрам ...
  • Обнаженная / Naked (Майк Ли, драма, комедия, 1993) [DVDRip, (2х)Профессиона ...
  • Командир / Il comandante (Паоло Хеуш, комедия, 1963) [DVDRip, Профессиональ ...
  • Молчание - золото / Le silence est dor (Рене Клер, мелодрама, комедия, 1947 ...
  • Такси! / Taxi! (Рой Дел Рут, комедия, мелодрама, криминал, 1932) [DVDRip, П ...
  • Вчера, сегодня, завтра / Ieri, oggi, domani (Витторио Де Сика, мелодрама, к ...
  • Наперегонки с Луной / Racing with the Moon (Ричард Бенджамин, Драма, мелодр ...
  • Чудесное спасение белых скакунов / Miracle of the White Stallions (Артур Хи ...
  • Поймет лишь одинокий / Only the Lonely (Крис Коламбус, мелодрама, комедия, ...
  • Полустанок (Борис Барнет, мелодрама, комедия, 1963) [DVDRip, Не требуется]
  • Лизелотта из Пфальца / Liselotte von der Pfalz (Курт Хофманн, мелодрама, ко ...
  • Дилижанс / Stagecoach (Джон Форд, боевик, мелодрама, драма, вестерн, 1939) ...
  • Хозяин и слуга (Дмитрий Кесаянц, короткометражка, комедия, 1963) [DVDRip, Н ...
  • Зелиг / Zelig (Вуди Аллен, фэнтези, комедия, 1983) [DVDRip, Авторский (одно ...
  • Бог знает, мистер Аллисон / Heaven Knows, Mr. Allison (Джон Хьюстон, боевик ...
  • Кавалеристы / The Horse Soldiers (Джон Форд, приключения, вестерн, военный, ...
  • Урок любви / En lektion i karlek (Ингмар Бергман, драма, комедия, 1954) [DV ...
  • Уик-энд / Week End (Жан-Люк Годар, драма, комедия, 1967) [DVDRip, Профессио ...
  • Как раздражать людей / How to Irritate People (Йен Фордайсе, комедия, 1969) ...
  • Медведи и я / The Bears and I (Бернард МакЭвети, драма, семейный, 1974) [DV ...
  • Информация
    Посетители, находящиеся в группе Гости, не могут оставлять комментарии к данной публикации.