вход на сайт

Имя пользователя :
Пароль :

Восстановление пароля Регистрация
Удар головой / Coup de tete (Жан-Жак Анно, драма, комедия, спорт, 1978) [DVDRip, Профессиональный (многоголосый, закадровый)]
Рейтинг:
(голосов: 1)



[img]{THEME}/images/logopost.png[/img]



Удар головой / Coup de tete

Год выпуска: 1978
Страна: Франция
Производство: Gaumont, Societe Francaise de Production (SFP)
Жанр: драма, комедия, спорт

Режиссёр: Жан-Жак Анно
В ролях: Патрик Девэр, Френс Дуньяк, Дороти Джемма, Морис Барье, Робер Дальбан, Марио Давид, Юбер Дешан, Дора Долл, Франсуа Дирек, Патрик Флёрем

Перевод: Профессиональный (многоголосый, закадровый)
Субтитры: Отсутствуют

Описание:
История злоключений Франсуа Перрена, бывшего футболиста, любовные похождения которого обернулись для него тюрьмой. Пройдя через множество недоразумений, Франсуа выручает свою команду и становится героем.


Дополнительно:
MediaInfo ▼Text
Общее
Полное имя :L:РАЗДАЧАУдар головойUdar_golovoi.avi
Формат :AVI
Размер :693 MiB
Продолжительность :01:25:10.760
Общий поток :1 137 Kbps
Программа кодирования :VirtualDubMod 1.5.10.2 (build 2542/release)
Библиотека кодирования :VirtualDubMod build 2542/release

Видео
Идентификатор :0
Формат :MPEG-4 Visual
Профиль формата :Advanced [email protected]
Параметр BVOP формата :1
Параметр Qpel формата :No
Параметр GMC формата :0
Параметр Matrix формата :Custom
Идентификатор кодека :XVID
Продолжительность :1h 25mn 10s 760ms
Битрейт :999 Kbps
Ширина :608 pixels
Высота :384 pixels
Соотношение сторон :1.583
Частота кадров :25.000 fps
Глубина цвета :8 bits
Подвыборка цветности :4:2:0
Цветовое пространство :YUV
Тип развертки :Progressive
Бит/(Пиксели*Кадры) :0.171
Размер потока :609 MiB (88%)
Библиотека кодирования :XviD0036

Аудио #1
Идентификатор :1
Формат :MPEG Audio
Идентификатор кодека :55
Продолжительность :01:25:10.752
Вид битрейта :Constant
Битрейт :128 Kbps
Канал(ы) :2 channels
Частота :48.0 KHz
Метод сжатия :Lossy
Размер потока :78.0 MiB (11%)
Язык :FrenchТех. данные:
Качество:DVDRip
Продолжительность:01:2
f6fd7c2a3ff32a8c01cbb5430a593c12dbb4a6faУдар головой / Coup de tete (Жан-Жак Анно, драма, комедия, спорт, 1978) [DVDRip, Профессиональный (многоголосый, закадровый)] Удар головой / Coup de tete (Жан-Жак Анно, драма, комедия, спорт, 1978) [DVDRip, Профессиональный (многоголосый, закадровый)] " />

Аплоадер: Админ, дата: 12-11-2012, 20:18, торрент скачан: 359 раз

Понравилась раздача? Посмотрите эти:
  • Все решается в среду / Big Wednesday (Джон Милиус, драма, комедия, спорт, 1 ...
  • Гарри-карманник / Harry in Your Pocket (Брюс Геллер, драма, комедия, кримин ...
  • Штрафной удар (Вениамин Дорман, комедия, спорт, 1963) [DVDRip, Не требуется ...
  • Папаши / Les comperes (Франсис Вебер, Комедия, криминал, 1983) [DVDRip, Про ...
  • Молчание - золото / Le silence est dor (Рене Клер, мелодрама, комедия, 1947 ...
  • Казанова 70 / Casanova 70 (Марио Моничелли, драма, комедия, 1965) [DVDRip, ...
  • Цена славы / Price of Glory (Карлос Авила, Драма, спорт, 2000) [DVDRip, Про ...
  • Уходя - уходи (Виктор Трегубович, комедия, 1978) [DVDRip, Не требуется]
  • Старомодная комедия (Эра Савельева, Татьяна Березанцева, мелодрама, 1978) [ ...
  • Вальсирующие / Les valseuses (Бертран Блие, драма, комедия, криминал, 1966) ...
  • Я стеснительный, но я лечусь / Je suis timide... mais je me soigne (Пьер Ри ...
  • Чистый лист / La tete en friche (Жан Беккер, драма, комедия, 2010) [HDRip, ...
  • Осенняя соната / Hostsonaten (Ингмар Бергман, драма, музыка, 1978) [DVDRip, ...
  • Будь красивой и молчи / Sois belle et tais-toi (Марк Аллегре, комедия, 1958 ...
  • Мой дядюшка / Mon oncle (Жак Тати, комедия, 1958) [DVDRip, Профессиональный ...
  • Чистый лист / La tête en friche (Жан Бекер, Драма, комедия, 2010) [HDRip, П ...
  • Семейный доктор / House Calls (Ховард Зифф, драма, мелодрама, комедия, 1978 ...
  • Повышение / The Promotion (Стив Конрад, Комедия, 2008) [DVDRip, Профессиона ...
  • Уик-энд / Week End (Жан-Люк Годар, драма, комедия, 1967) [DVDRip, Профессио ...
  • Харакири / Seppuku (Масаки Кобаяси, драма, 1962) [DVDRip, Профессиональный ...
  • Информация
    Посетители, находящиеся в группе Гости, не могут оставлять комментарии к данной публикации.