вход на сайт

Имя пользователя :
Пароль :

Восстановление пароля Регистрация
Шарло в Испании / Les Charlots font lEspagne (Жан Жиро, комедия, 1972) [DVDRip, Профессиональный (двухголосый, закадровый)]
Рейтинг:
(голосов: 1)



[img]{THEME}/images/logopost.png[/img]



Шарло в Испании / Les Charlots font lEspagne

Год выпуска: 1972
Страна: Франция, Испания
Производство: Diasa P.C., Les Films Christian Fechner, Renn Productions
Жанр: комедия

Режиссёр: Жан Жиро
В ролях: Жан-Ги Фешнер, Жерар Филипелли, Жерар Ринальди, Жан Саррюс, Жерар Крос, Жак Легра ,Ив Барсак, Мара Круз, Катя Ченко

Перевод: Профессиональный (двухголосый, закадровый)
Субтитры: Отсутствуют

Описание:
Друзья-приятели, работающие в парижском метро, мечтают отправиться в Испанию, которая представляется им райской страной. Когда их мечта осуществляется, все четверо попадают в цепочку непрерывных приключений…


Дополнительно:
MediaInfo ▼Text
Общее
Полное имя :J:Кинокопилка.РуРАЗДАЧАШарло в ИспанииScharlo_v_Ispanii.avi
Формат :AVI
Размер :1.37 GiB
Продолжительность :01:16:23.120
Общий поток :2 562 Kbps
Программа кодирования :FairUse Wizard - http://fairusewizard.com
Библиотека кодирования :The best and REALLY easy backup tool

Видео
Идентификатор :0
Формат :MPEG-4 Visual
Профиль формата :Advanced [email protected]
Параметр BVOP формата :1
Параметр Qpel формата :No
Параметр GMC формата :0
Параметр Matrix формата :Default (MPEG)
Идентификатор кодека :XVID
Продолжительность :1h 16mn 23s 120ms
Битрейт :2 424 Kbps
Ширина :672 pixels
Высота :464 pixels
Соотношение сторон :1.448
Частота кадров :25.000 fps
Глубина цвета :8 bits
Подвыборка цветности :4:2:0
Цветовое пространство :YUV
Тип развертки :Progressive
Бит/(Пиксели*Кадры) :0.311
Размер потока :1.29 GiB (95%)
Библиотека кодирования :XviD0047

Аудио #1
Идентификатор :1
Формат :MPEG Audio
Идентификатор кодека :55
Продолжительность :01:16:23.040
Вид битрейта :Constant
Битрейт :128 Kbps
Канал(ы) :2 channels
Частота :48.0 KHz
Метод сжатия :Lossy
Размер потока :69.9 MiB (5%)Тех. данные:
Качество:DVDRip
Продолжительность:01:16:20 час

Формат: AVI
Видео кодек: XviD
Ауд
d06268081d3fe48227e3744d94227d9eadf92177Шарло в Испании / Les Charlots font lEspagne (Жан Жиро, комедия, 1972) [DVDRip, Профессиональный (двухголосый, закадровый)] Шарло в Испании / Les Charlots font lEspagne (Жан Жиро, комедия, 1972) [DVDRip, Профессиональный (двухголосый, закадровый)] " />

Аплоадер: Админ, дата: 27-10-2012, 23:27, торрент скачан: 359 раз

Понравилась раздача? Посмотрите эти:
  • Влияние гамма-лучей на бледно-желтые ноготки / The Effect of Gamma Rays on ...
  • Сезар и Розали / Cesar et Rosalie (Клод Соте, драма, комедия, 1972) [BDRip, ...
  • Однажды на матрасе / Once Upon a Mattress (Кэтлин Маршалл, мюзикл, мелодрам ...
  • Обнаженная / Naked (Майк Ли, драма, комедия, 1993) [DVDRip, (2х)Профессиона ...
  • Капитан из Кастильи / Captain from Castile (Генри Кинг, драма, приключения, ...
  • Новобранцы сходят с ума (Шарло) / Les bidasses en folie (Клод Зиди, Комедия ...
  • Магазинчик за углом / The Shop Around the Corner (Эрнст Любич, драма, мелод ...
  • Сладкая жизнь / La dolce vita (Федерико Феллини, драма, комедия, 1959) [DVD ...
  • Процесс Жанны Д Арк / Proces de Jeanne dArc (Робер Брессон, драма, военный, ...
  • Вальсирующие / Les valseuses (Бертран Блие, драма, комедия, криминал, 1966) ...
  • Четыре мушкетера Шарло / Les quatre Charlots mousquetaires (Андре Юнебелль, ...
  • Высокий блондин в черном ботинке / Le grand blond avec une chaussure noire ...
  • Укрощение строптивой / The Taming of the Shrew (Франко Дзеффирелли, комедия ...
  • Тристана / Tristana (Луис Бунюэль, Драма, 1970) [DVDRip, Профессиональный ( ...
  • Суп из капусты / La soupe aux choux (Жан Жиро, фантастика, комедия, 1981) [ ...
  • Переполох в облаках / Poplach v oblacich (Индрих Полак, семейный, 1980) [DV ...
  • Неверные / Le infedeli (Марио Моничелли, Стено, драма, комедия, 1953) [DVDR ...
  • Кафе–экспресс / Cafe Express (Нанни Лой, комедия, 1980) [DVDRip, Профессион ...
  • Бог знает, мистер Аллисон / Heaven Knows, Mr. Allison (Джон Хьюстон, боевик ...
  • Аванти! / Avanti! (Билли Уайлдер, комедия, мелодрама, 1972) [DVDRip, Профес ...
  • День добрый, улыбка! / Bonjour sourire! (Клод Соте, комедия, 1956) [DVDRip, ...
  • Тайна Карпатского замка / Tajemstvi hradu v Karpatech (Ольдржих Липский, Ко ...
  • Дьявольское око / Djдvulens цga (Ингмар Бергман, фэнтези, драма, комедия, 1 ...
  • Убей! / Kiru (Кихачи Окамото, боевик, драма, комедия, 1968) [DVDRip, Профес ...
  • Школа воров 2 / Scuola di ladri - parte seconda (Нери Паренти, Комедия, 198 ...
  • Информация
    Посетители, находящиеся в группе Гости, не могут оставлять комментарии к данной публикации.