вход на сайт

Имя пользователя :
Пароль :

Восстановление пароля Регистрация
Процесс Жанны Д Арк / Proces de Jeanne dArc (Робер Брессон, драма, военный, 1962) [DVDRip, Профессиональный (двухголосый, закадровый)]
Рейтинг:
(голосов: 1)



[img]{THEME}/images/logopost.png[/img]



Процесс Жанны Д Арк / Proces de Jeanne dArc

Год выпуска: 1962
Страна: Франция
Производство: Agnes Delahaie Productions
Жанр: драма, военный

Режиссёр: Робер Брессон
В ролях: Флоранс Делей, Жан-Клод Фурно, Марк Жакье, Жан Жильбер, Роже Онора, Мишель Эрубель, Андре Рэнье, Артур Ле Бо, Марсель Дарбо, Филипп Друа, Поль-Робер Мимэ, Жерар Зингг

Перевод: Профессиональный (двухголосый, закадровый)
Субтитры: Отсутствуют

Описание:
Историческая драма детально воссоздаёт судебный процесс над знаменитой Орлеанской Девой — Жанной Д`Арк.


Дополнительно:
MediaInfo ▼Text
Общее
Полное имя :J:Кинокопилка.РуРАЗДАЧАПроцесс Жанны Д АркProcess.Janny.D.Ark.1962.DVDRip.avi
Формат :AVI
Размер :701 MiB
Продолжительность :01:01:21.920
Общий поток :1 598 Kbps
Программа кодирования :VirtualDubMod 1.5.10.3 | www.virtualdub-fr.org || (build 2550/release)
Библиотека кодирования :VirtualDubMod build 2550/release

Видео
Идентификатор :0
Формат :MPEG-4 Visual
Профиль формата :Advanced [email protected]
Параметр BVOP формата :2
Параметр Qpel формата :No
Параметр GMC формата :0
Параметр Matrix формата :Default (H.263)
Идентификатор кодека :XVID
Продолжительность :1h 1mn 21s 920ms
Битрейт :1 397 Kbps
Ширина :720 pixels
Высота :400 pixels
Соотношение сторон :1.800
Частота кадров :25.000 fps
Глубина цвета :8 bits
Подвыборка цветности :4:2:0
Цветовое пространство :YUV
Тип развертки :Progressive
Бит/(Пиксели*Кадры) :0.194
Размер потока :613 MiB (87%)
Библиотека кодирования :XviD0050

Аудио #1
Идентификатор :1
Формат :AC-3
Формат/Информация :Audio Coding 3
Идентификатор кодека :2000
Продолжительность :01:01:16.704
Вид битрейта :Constant
Битрейт :192 Kbps
Канал(ы) :2 channels
Расположение каналов :Front: L R
Частота :48.0 KHz
Битовая глубина :16 bits
Метод сжатия :Lossy
Размер потока :84.2 MiB
ef67ebde233a3a40490b6b168e70e34f180ec1a5Процесс Жанны Д Арк / Proces de Jeanne dArc (Робер Брессон, драма, военный, 1962) [DVDRip, Профессиональный (двухголосый, закадровый)] Процесс Жанны Д Арк / Proces de Jeanne dArc (Робер Брессон, драма, военный, 1962) [DVDRip, Профессиональный (двухголосый, закадровый)] " />

Аплоадер: Админ, дата: 3-10-2012, 05:44, торрент скачан: 359 раз

Понравилась раздача? Посмотрите эти:
  • Воздыхатель / Le soupirant (Пьер Этекс, комедия, 1962) [DVDRip, Профессиона ...
  • Сотворившая чудо / The Miracle Worker (Артур Пенн, драма, биография, 1962) ...
  • Последний раз, когда я видел Париж / The Last Time I Saw Paris (Ричард Брук ...
  • Босс / Le Pacha (Жорж Лотнер, драма, криминал, 1968) [DVDRip, Профессиональ ...
  • Мушетт / Mouchette (Робер Брессон, драма, 1967) [DVDRip, Профессиональный ( ...
  • Молчание Жанны / Jeanne captive (Филипп Рамос, Драма, история, 2011) [SATRi ...
  • Гнев Ахилла / Lira di Achille (Марино Гиролами, боевик, драма, мелодрама, в ...
  • Иваново детство (Андрей Тарковский, драма, военный, 1962) [DVDRip, Не требу ...
  • Не пойман - не вор / Ni vu, ni connu (Ив Робер, комедия, 1958) [DVDRip, Про ...
  • [EN] Процесс / The Trial (Орсон Уэллс, фэнтези, триллер, драма, криминал, д ...
  • Карманник / Pickpocket (Робер Брессон, триллер, драма, криминал, 1959) [DVD ...
  • Преждевременное погребение / Premature Burial (Роджер Корман, ужасы, драма, ...
  • Я стеснительный, но я лечусь / Je suis timide... mais je me soigne (Пьер Ри ...
  • Тристана / Tristana (Луис Бунюэль, Драма, 1970) [DVDRip, Профессиональный ( ...
  • Ад для героев / Hell Is for Heroes (Дон Сигел, боевик, драма, военный, 1962 ...
  • Белая свадьба / Noce blanche (Жан-Клод Бриссо, драма, мелодрама, 1989) [DVD ...
  • Город пиратов / La ville des pirates (Рауль Руис, фэнтези, драма, 1983) [DV ...
  • Мы поедем в Дювиль / Nous irons a Deauville (Френсис Риго, комедия, 1962) [ ...
  • Бог знает, мистер Аллисон / Heaven Knows, Mr. Allison (Джон Хьюстон, боевик ...
  • Рай и ад / Tengoku to jigoku (Акира Куросава, триллер, драма, криминал, 196 ...
  • Дьявольское око / Djдvulens цga (Ингмар Бергман, фэнтези, драма, комедия, 1 ...
  • Пески Иво Джимы / Sands of Iwo Jima (Аллан Дуон, боевик, драма, мелодрама, ...
  • Убей! / Kiru (Кихачи Окамото, боевик, драма, комедия, 1968) [DVDRip, Профес ...
  • Харакири / Seppuku (Масаки Кобаяси, драма, 1962) [DVDRip, Профессиональный ...
  • Близнец / Le jumeau (Ив Робер, Комедия, 1984) [DVDRip, Профессиональный (мн ...
  • Информация
    Посетители, находящиеся в группе Гости, не могут оставлять комментарии к данной публикации.