вход на сайт

Имя пользователя :
Пароль :

Восстановление пароля Регистрация
Вождь краснокожих и другие / O.Henrys Full House (Генри Хэтэуэй, Ховард Хоукс, Генри Кинг, драма, 1952) [DVDRip, Профессиональный (многоголосый, закадровый)]
Рейтинг:
(голосов: 1)



[img]{THEME}/images/logopost.png[/img]



Вождь краснокожих и другие / O.Henrys Full House

Год выпуска: 1952
Страна: США
Производство: 20th Century Fox Film Corporation
Жанр: драма

Режиссёр: Генри Хэтэуэй, Ховард Хоукс, Генри Кинг
В ролях: Фред Аллен, Энн Бэкстер, Джинн Крейн, Фарли Грейнджер, Чарльз Лотон, Оскар Левант, Мэрилин Монро, Джин Питерс, Грегори Рэтофф, Дэйл Робертсон

Перевод: Профессиональный (многоголосый, закадровый)
Субтитры: Отсутствуют

Описание:
Отличные режиссеры, известные актеры и даже Мэрилин Монро в небольшой роли.


Дополнительно:
Знаете ли вы, что... ▼
Перевод оригинального названия - Аншлаг О.Генри.

MediaInfo ▼Text
Общее
Полное имя :D:РаздачаВождь краснокожих и другиеВождь краснокожих и др.avi
Формат :AVI
Размер :700 MiB
Продолжительность :01:52:47.360
Общий поток :867 Kbps
Программа кодирования :VirtualDubMod 1.5.4.1 (build 2178/release)
Библиотека кодирования :VirtualDubMod build 2178/release

Видео
Идентификатор :0
Формат :MPEG-4 Visual
Профиль формата :Advanced [email protected]
Параметр BVOP формата :1
Параметр Qpel формата :No
Параметр GMC формата :0
Параметр Matrix формата :Custom
Идентификатор кодека :XVID
Продолжительность :1h 52mn 47s 360ms
Битрейт :732 Kbps
Ширина :640 pixels
Высота :480 pixels
Соотношение сторон :1.333
Частота кадров :25.000 fps
Глубина цвета :8 bits
Подвыборка цветности :4:2:0
Цветовое пространство :YUV
Тип развертки :Progressive
Бит/(Пиксели*Кадры) :0.095
Размер потока :591 MiB (84%)
Библиотека кодирования :XviD0050

Аудио #1
Идентификатор :1
Формат :MPEG Audio
Идентификатор кодека :55
Продолжительность :01:52:47.352
Вид битрейта :Constant
Битрейт :128 Kbps
Канал(ы) :2 channels
Частота :48.0 KHz
Метод сжатия :Lossy
Размер потока :103 MiB (15%)
Язык :RussianТех. данные:
Качество:DVDRip
Продолжительность:01
70d25c232528ae0cc710a67dfca842647593a544Вождь краснокожих и другие / O.Henrys Full House (Генри Хэтэуэй, Ховард Хоукс, Генри Кинг, драма, 1952) [DVDRip, Профессиональный (многоголосый, закадровый)] Вождь краснокожих и другие / O.Henrys Full House (Генри Хэтэуэй, Ховард Хоукс, Генри Кинг, драма, 1952) [DVDRip, Профессиональный (многоголосый, закадровый)] " />

Аплоадер: Админ, дата: 28-09-2012, 21:09, торрент скачан: 359 раз

Понравилась раздача? Посмотрите эти:
  • Добрый сынок / The Good Son (Джозеф Рубин, ужасы, триллер, драма, 1993) [DV ...
  • Иметь и не иметь / To Have and Have Not (Ховард Хоукс, триллер, мелодрама, ...
  • Солдат в юбке / I Was a Male War Bride (Ховард Хоукс, мелодрама, комедия, в ...
  • Лицо со шрамом / Scarface (Ховард Хоукс, Ричард Россон, триллер, 1932) [DVD ...
  • Аэропорт / Airport (Джордж Ситон, Генри Хэтэуэй, триллер, драма, 1970) [BDR ...
  • Капитан из Кастильи / Captain from Castile (Генри Кинг, драма, приключения, ...
  • Криминальная фишка от Генри / Henrys Crime (Малькольм Венвилль, Мелодрама, ...
  • Выпускник / The Graduate (Майк Николс, драма, мелодрама, комедия, 1967) [DV ...
  • Мы не женаты / Were Not Married! (Эдмунд Гулдинг, мелодрама, комедия, 1952) ...
  • Рамона / Ramona (Генри Кинг, драма, мелодрама, 1936) [DVDRip, Профессиональ ...
  • Наперегонки с Луной / Racing with the Moon (Ричард Бенджамин, Драма, мелодр ...
  • Криминальная фишка от Генри / Henrys Crime (Малькольм Венвилль, мелодрама, ...
  • Шесть жен Генри Лефэя / The Six Wives of Henry Lefay (Ховард Гулд, Комедия, ...
  • Тысяча и одна ночь / Чудеса Аладдина / The Wonders of Aladdin / Le meravigl ...
  • Свидетель обвинения / Witness for the Prosecution (Билли Уайлдер, триллер, ...
  • Деловые люди (полная реставрация) (Леонид Гайдай, комедия, драма, 1962) [DV ...
  • Большой начальник (Вождь краснокожих) / Le grand chef (Анри Вернёй, комедия ...
  • Нападение на почтовую станцию / Rawhide (Генри Хэтэуэй, драма, мелодрама, в ...
  • Земля Фараонов / Land of the Pharaohs (Ховард Хоукс, драма, история, 1955) ...
  • К северу от Аляски / North to Alaska (Генри Хэтэуэй, вестерн, комедия, 1960 ...
  • Семейный доктор / House Calls (Ховард Зифф, драма, мелодрама, комедия, 1978 ...
  • Бравадос / The Bravados (Генри Кинг, драма, вестерн, 1958) [DVDRip, Професс ...
  • Рио Браво / Rio Bravo (Ховард Хоукс, драма, мелодрама, вестерн, 1959) [BDRi ...
  • Стрелок / The Gunfighter (Генри Кинг, драма, вестерн, 1950) [DVDRip, Профес ...
  • Эльдорадо / El Dorado (Ховард Хоукс, боевик, приключения, вестерн, 1966) [D ...
  • Информация
    Посетители, находящиеся в группе Гости, не могут оставлять комментарии к данной публикации.