вход на сайт

Имя пользователя :
Пароль :

Восстановление пароля Регистрация
Апокалипсис сегодня / Apocalypse Now (Френсис Форд Коппола / Francis Ford Coppola, драма, военный, 1979) [BDRip - AVC, Многоголосый + Авторский + Оригинал + SUB]
Рейтинг:
(голосов: 1)



[img]{THEME}/images/logopost.png[/img]



Апокалипсис сегодня / Apocalypse Now
«The Horror… The Horror…»

Год выпуска: 1979
Страна: США
Производство: Zoetrope Studios
Жанр: драма, военный

Режиссёр: Френсис Форд Коппола / Francis Ford Coppola
В ролях: Марлон Брандо, Мартин Шин, Роберт Дювалл, Фредерик Форрест, Сэм Боттомс, Лоренс Фишбёрн, Альберт Холл, Харрисон Форд, Деннис Хоппер, Г.Д. Спрэдлин


Перевод: 1: Профессиональный (многоголосый, закадровый) (MVO) (СОЮЗ Видео)
2: Авторский (одноголосый, закадровый) (АVO) (Гоблин)
3: Оригинал
Субтитры: русские, английские

Описание: Во время войны во Вьетнаме спецагент отправляется вверх по реке в Камбоджу с приказом найти и убить полусумасшедшего полковника, создавшего в отдаленном районе нечто вроде собственного королевства насилия. По пути мы видим почти сюрреалистический мир ужасов войны.Дата премьеры (мир): 10 мая 1979
Релиз на DVD: 20 ноября 2003, «Союз-Видео»
Релиз на Blu-Ray: 21 июня 2011, «Юниверсал Пикчерс Рус»
Качество: BDRip - AVC
Продолжительность: 03:16:09

Формат: MKV
Видео кодек: x264
Аудио кодек: AC3
Видео: 1136 x 484 (2.35:1), 23.976 fps, AVC, ~3 066 kbps avg, 0.226 bit/pixel
Аудио #1: [Russian] 48 kHz, AC3, 6 channels (Front: L C R, Side: L R, LFE), ~384.00 kbps avg | MVO (СОЮЗ Видео)
Аудио #2: [Russian] 48 kHz, AC3, 6 channels (Front: L C R, Side: L R, LFE), ~448.00 kbps avg | AVO (Гоблин)
Аудио #3: [English] 48 kHz, AC3, 6 channels (Front: L C R, Side: L R, LFE), ~448.00 kbps avg | Оригинал
MediaInfo ▼TextFormat : Matroska
File size : 5.96 GiB
Duration : 3h 16mn
Overall bit rate : 4 348 Kbps
Movie name : Apocalypse Now (1979) BDRip
Encoded date : UTC 2011-01-09 18:55:48
Writing application : mkvmerge v4.4.0 (Die Wiederkehr) сборка от Oct 31 2010 21:52:48
Writing library : libebml v1.0.0 + libmatroska v1.0.0
Cover : Yes
Video
ID : 1
Format : AVC
Format/Info : Advanced Video Codec
Format profile : [email protected]
Format settings, CABAC : Yes
Format settings, ReFrames : 12 frames
Codec ID : V_MPEG4/ISO/AVC
Duration : 3h 16mn
Bit rate : 3 066 Kbps
Width : 1 136 pixels
Height : 484 pixels
Display aspect ratio : 2.35:1
Frame rate : 23.976 fps
Color space : YUV
Chroma subsampling : 4:2:0
Bit depth : 8 bits
Scan type : Progressive
Bits/(Pixel*Frame) : 0.226
Stream size : 4.09 GiB (69%)
Writing library : x264 core 112 r1834 a51816a
Encoding settings : cabac=1 / ref=12 / deblock=1:-3:-3 / analyse=0x3:0x133 / me=umh / subme=10 / psy=1 / psy_rd=1.05:0.03 / mixed_ref=1 / me_range=32 / chroma_me=1 / trellis=2 / 8x8dct=1 / cqm=0 / deadzone=21,11 / fast_pskip=1 / chroma_qp_offset=-3 / threads=6 / sliced_threads=0 / nr=0 / decimate=1 / interlaced=0 / constrained_intra=0 / bframes=10 / b_pyramid=2 / b_adapt=2 / b_bias=0 / direct=3 / weightb=1 / open_gop=0 / weightp=2 / keyint=250 / keyint_min=23 / scenecut=40 / intra_refresh=0 / rc_lookahead=120 / rc=crf / mbtree=1 / crf=17.4 / qcomp=0.70 / qpmin=0 / qpmax=51 / qpstep=4 / ip_ratio=1.40 / aq=1:0.70
Language : English
Audio #1
ID : 2
Format : AC-3
Format/Info : Audio Coding 3
Mode extension : CM (complete main)
Codec ID : A_AC3
Duration : 3h 16mn
Bit rate mode : Constant
Bit rate : 448 Kbps
Channel(s) : 6 channels
Channel positions : Front: L C R, Side: L R, LFE
Sampling rate : 48.0 KHz
Bit depth : 16 bits
Stream size : 629 MiB (10%)
Title : AVO (Goblin)
Language : Russian
Audio #2
ID : 3
Format : AC-3
Format/Info : Audio Coding 3
Mode extension : CM (complete main)
Codec ID : A_AC3
Duration : 3h 16mn
Bit rate mode : Constant
Bit rate : 384 Kbps
Channel(s) : 6 channels
Channel positions : Front: L C R, Side: L R, LFE
Sampling rate : 48.0 KHz
Bit depth : 16 bits
Stream size
9c859bbd591faf1ecdabd86eb63cc35aefa9635dАпокалипсис сегодня / Apocalypse Now (Френсис Форд Коппола / Francis Ford Coppola, драма, военный, 1979) [BDRip - AVC, Многоголосый + Авторский + Оригинал + SUB] Апокалипсис сегодня / Apocalypse Now (Френсис Форд Коппола / Francis Ford Coppola, драма, военный, 1979) [BDRip - AVC, Многоголосый + Авторский + Оригинал + SUB] " />

Аплоадер: Админ, дата: 5-07-2012, 01:52, торрент скачан: 359 раз

Понравилась раздача? Посмотрите эти:
  • Запретная любовь / The Edge of Love (Джон Мэйбери, Драма, мелодрама, военны ...
  • Убить по расписанию / Ticking Clock (Эрни Барбараш, фантастика, боевик, три ...
  • Шелуха / Husk (Бретт Симмонс, ужасы, триллер, 2011) [BDRip 720p, Профессион ...
  • Цельнометаллическая оболочка / Full Metal Jacket (Стэнли Кубрик, драма, вое ...
  • Персонаж / Stranger Than Fiction (Марк Форстер, Комедия, драма, фантастика, ...
  • Обряд / The Rite (Микаэль Хафстрем, ужасы, триллер, драма, 2011) [BDRip-AVC ...
  • Поворот не туда 4 / Wrong Turn 4 (Деклан О’Брайэн, ужасы, боевик, детектив, ...
  • Человек-волк [Театральная версия] / The Wolfman [Theatrical cut] (Джо Джонс ...
  • Автостопом по галактике / The Hitchhikers Guide to the Galaxy (Гарт Дженнин ...
  • Робин Гуд [Режиссёрская версия] / Robin Hood [Directors Cut] (Ридли Скотт / ...
  • Второй шанс / Gridiron Gang (Фил Джоану / Phil Joanou, драма, криминал, спо ...
  • Охота за "Красным Октябрём" / The Hunt for "Red October" (Джон МакТирнан, б ...
  • Джек / Jack (Френсис Форд Коппола, фэнтези, драма, комедия, 1996) [HDTVRip- ...
  • Рыжий пес / Red Dog (Крив Стендерс, драма, комедия, семейный, 2011) [BDRip ...
  • Китайский квартал / Chinatown (Роман Полански, Триллер, драма, криминал, де ...
  • Между / Twixt (Френсис Форд Коппола, ужасы, фэнтези, триллер, 2011) [BDRip ...
  • Три метра над уровнем неба / Tres metros sobre el cielo (Фернандо Гонзалез ...
  • Mylene Farmer / Du Temps [2011, Pop, HDTVRip]
  • Апокалипсис сегодня / Apocalypse Now Redux (Фрэнсис Форд Коппола) [1979г., ...
  • Апокалипсис сегодня / Apocalypse Now (Френсис Форд Коппола, Драма, Военный, ...
  • Апокалипсис сегодня. Режиссерская версия / Apocalypse Now Redux. Directors. ...
  • Апокалипсис сегодня. Режиссерская версия / Apocalypse Now Redux. Directors. ...
  • Апокалипсис сегодня / Apocalypse Now [Режиссерская версия / Redux Version] ...
  • Апокалипсис сегодня / Apocalypse Now (Френсис Форд Коппола, Драма, 1979) [H ...
  • Апокалипсис сегодня / Apocalypse Now (Френсис Форд Коппола, драма, военный, ...
  • Информация
    Посетители, находящиеся в группе Гости, не могут оставлять комментарии к данной публикации.