вход на сайт

Имя пользователя :
Пароль :

Восстановление пароля Регистрация
Джентельменское соглашение / Gentlemans Agreement (Элиа Казан, драма, мелодрама, 1947) [DVDRip, Профессиональный (многоголосый, закадровый)]
Рейтинг:
(голосов: 1)



[img]{THEME}/images/logopost.png[/img]



Джентельменское соглашение / Gentlemans Agreement

Год выпуска: 1947
Страна: США
Производство: Twentieth Century Fox Film Corporation
Жанр: драма, мелодрама

Режиссёр: Элиа Казан
В ролях: Грегори Пек, Селеста Холм, Дороти МакГуайр, Джон Гарфилд, Элберт Деккер

Перевод: Профессиональный (многоголосый, закадровый)
Субтитры: Отсутствуют

Описание:
В центре повествования молодой независимый литератор, пытающийся привлечь внимание общества к социальным проблемам и выдающий себя за еврея, с тем чтобы написать ряд статей об антисемитизме и взглянуть на трагедию народа без Родины глазами еврея.


Дополнительно:
MediaInfo ▼Text
Общее
Полное имя :L:РАЗДАЧАДжентельменское соглашениеdzhentlmenskoe_soglashenie.avi
Формат :AVI
Размер :1.37 GiB
Продолжительность :01:58:16.590
Общий поток :1 654 Kbps
Программа кодирования :VirtualDubMod 1.5.10.2 (build 2540/release)
Библиотека кодирования :VirtualDubMod build 2540/release

Видео
Идентификатор :0
Формат :MPEG-4 Visual
Параметр BVOP формата :1
Параметр Qpel формата :No
Параметр GMC формата :0
Параметр Matrix формата :Default (H.263)
Идентификатор кодека :DX50
Продолжительность :1h 58mn 16s 590ms
Битрейт :1 197 Kbps
Ширина :640 pixels
Высота :464 pixels
Соотношение сторон :1.379
Частота кадров :23.976 fps
Глубина цвета :8 bits
Подвыборка цветности :4:2:0
Цветовое пространство :YUV
Тип развертки :Progressive
Бит/(Пиксели*Кадры) :0.168
Размер потока :1 013 MiB (72%)
Библиотека кодирования :DivX503b2318p

Аудио #1
Идентификатор :1
Формат :AC-3
Формат/Информация :Audio Coding 3
Идентификатор кодека :2000
Продолжительность :01:58:16.448
Вид битрейта :Constant
Битрейт :448 Kbps
Канал(ы) :2 channels
Расположение каналов :Front: L R
Частота :48.0 KHz
Битовая глубина :16 bits
Метод сжатия :Lossy
Размер потока :379 MiB (27%)Тех. данные:
Качество:&n
33de0755d55ba843a611eb0d5e934faf17ee6183Джентельменское соглашение / Gentlemans Agreement (Элиа Казан, драма, мелодрама, 1947) [DVDRip, Профессиональный (многоголосый, закадровый)] Джентельменское соглашение / Gentlemans Agreement (Элиа Казан, драма, мелодрама, 1947) [DVDRip, Профессиональный (многоголосый, закадровый)] " />

Аплоадер: Админ, дата: 29-06-2012, 19:42, торрент скачан: 359 раз

Понравилась раздача? Посмотрите эти:
  • Выбывший из игры / Odd Man Out (Кэрол Рид, фильм-нуар, триллер, драма, мело ...
  • К востоку от рая / East of Eden (Элиа Казан, драма, мелодрама, 1955) [DVDRi ...
  • Поездка в Америку / Coming to America (Джон Лэндис, драма, мелодрама, комед ...
  • Молчание - золото / Le silence est dor (Рене Клер, мелодрама, комедия, 1947 ...
  • Странный груз / Strange Cargo (Фрэнк Борзеги, драма, мелодрама, 1940) [DVDR ...
  • С террасы / From the Terrace (Марк Робсон, драма, мелодрама, 1960) [DVDRip, ...
  • Сердце и души / Heart and Souls (Рон Андервуд, фэнтези, драма, мелодрама, к ...
  • Не уходи / Non ti muovere (Серджо Кастеллитто, драма, мелодрама, 2004) [DVD ...
  • Любовники / Les amants (Луи Малль, драма, 1958) [DVDRip, Профессиональный ( ...
  • Пэйтон Плейс / Peyton Place (Марк Робсон, драма, мелодрама, 1957) [DVDRip, ...
  • Жить, чтобы жить / Vivre Pour Vivre (Клод Лелуш, драма, 1967) [DVDRip, Проф ...
  • Солдат удачи / Soldier of Fortune (Эдвард Дмитрык, приключения, драма, 1955 ...
  • Лето с Моникой / Sommaren med Monika (Ингмар Бергман, драма, мелодрама, 195 ...
  • Квадрофения / Quadrophenia (Фрэнк Роддэм, драма, криминал, музыка, 1979) [H ...
  • В порту / On the Waterfront (Элиа Казан, драма, криминал, 1954) [DVDRip, Пр ...
  • Конвейер / Blue Collar (Пол Шредер, драма, криминал, 1977) [DVDRip, Професс ...
  • Свяжи меня / Atame! (Педро Альмодовар, драма, мелодрама, комедия, криминал, ...
  • Дикие дни / A Fei jingjyuhn (Вонг Кар-Вай, драма, мелодрама, криминал, 1990 ...
  • Синбад-мореход / Sinbad the Sailor (Ричард Уоллес, мелодрама, приключения, ...
  • Повышение / The Promotion (Стив Конрад, Комедия, 2008) [DVDRip, Профессиона ...
  • Уик-энд / Week End (Жан-Люк Годар, драма, комедия, 1967) [DVDRip, Профессио ...
  • Властелин джунглей / Ghatothkach (Сингитам Шриниваса Рао, мультфильм, 2008) ...
  • Трамвай «Желание» / A Streetcar Named Desire (Элиа Казан, драма, мелодрама, ...
  • Убей! / Kiru (Кихачи Окамото, боевик, драма, комедия, 1968) [DVDRip, Профес ...
  • Что навеял ветер / Something in the Wind (Ирвинг Пичел, мюзикл, комедия, 19 ...
  • Информация
    Посетители, находящиеся в группе Гости, не могут оставлять комментарии к данной публикации.