вход на сайт

Имя пользователя :
Пароль :

Восстановление пароля Регистрация
Сладкая жизнь / La dolce vita (Федерико Феллини, драма, комедия, 1959) [DVDRip, Профессиональный (двухголосый, закадровый)]
Рейтинг:
(голосов: 1)



[img]{THEME}/images/logopost.png[/img]



Сладкая жизнь / La dolce vita

Год выпуска: 1959
Страна: Франция, Италия
Производство: Gray-Film, Pathe Consortium Cinema, Riama Film
Жанр: драма, комедия

Режиссёр: Федерико Феллини
В ролях: Марчелло Мастроянни , Анук Эме , Анита Экберг , Ивонн Ферно , Адриано Челeнтано , Ален Кюни

Перевод: Профессиональный (двухголосый, закадровый)
Субтитры: Отсутствуют

Описание:
Журналист Марчелло — наблюдатель и участник всех эпизодов жизни итальянской элиты конца 50-х годов. Женщины как тени сменяют друг друга, не задевая его чувств, даже явление американской кинодивы Сильвии, воплощения сексуальности и порока, не выводит его из ступора. Внезапное самоубийство его друга Штайнера, пришедшего к мысли о бессмысленности их жизни, приводит Марчелло к катарсису, но надолго ли…


Дополнительно:
MediaInfo ▼Text
Общее
Полное имя :D:РаздачаСладкая жизньsladkaja_zhizn.avi
Формат :AVI
Размер :1.02 GiB
Продолжительность :02:47:01.200
Общий поток :876 Kbps
Программа кодирования :VirtualDubMod 1.5.4.1 (build 2178/release)
Библиотека кодирования :VirtualDubMod build 2178/release

Видео
Идентификатор :0
Формат :MPEG-4 Visual
Профиль формата :[email protected]
Параметр BVOP формата :No
Параметр Qpel формата :No
Параметр GMC формата :0
Параметр Matrix формата :Default (H.263)
Идентификатор кодека :XVID
Продолжительность :2h 47mn 1s 200ms
Битрейт :757 Kbps
Ширина :720 pixels
Высота :304 pixels
Соотношение сторон :2.368
Частота кадров :25.000 fps
Глубина цвета :8 bits
Подвыборка цветности :4:2:0
Цветовое пространство :YUV
Тип развертки :Progressive
Бит/(Пиксели*Кадры) :0.138
Размер потока :905 MiB (86%)
Библиотека кодирования :XviD0047

Аудио #1
Идентификатор :1
Формат :MPEG Audio
Идентификатор кодека :55
Продолжительность :02:47:01.152
Вид битрейта :Variable
Битрейт :106 Kbps
Канал(ы) :2 channels
Частота :48.0 KHz
Метод сжатия :Lossy
Размер потока :127 MiB (12%)
Язык &nbs
2521b20728ebd47662cb5e918dc7801f4ba152a9Сладкая жизнь / La dolce vita (Федерико Феллини, драма, комедия, 1959) [DVDRip, Профессиональный (двухголосый, закадровый)] Сладкая жизнь / La dolce vita (Федерико Феллини, драма, комедия, 1959) [DVDRip, Профессиональный (двухголосый, закадровый)] " />

Аплоадер: Админ, дата: 29-06-2012, 19:27, торрент скачан: 359 раз

Понравилась раздача? Посмотрите эти:
  • Босс / Le Pacha (Жорж Лотнер, драма, криминал, 1968) [DVDRip, Профессиональ ...
  • Поездка в Америку / Coming to America (Джон Лэндис, драма, мелодрама, комед ...
  • Сладкая жизнь / La Dolce Vita (Федерико Феллини, драма, комедия, 1959) [BDR ...
  • 8 с половиной / 8½ (Федерико Феллини, фэнтези, драма, 1963) [BDRip, Професс ...
  • Однажды на матрасе / Once Upon a Mattress (Кэтлин Маршалл, мюзикл, мелодрам ...
  • Обнаженная / Naked (Майк Ли, драма, комедия, 1993) [DVDRip, (2х)Профессиона ...
  • Восемь с половиной / Otto E Mezzo ( Федерико Феллини )[1963., Драма, DVDRip ...
  • Сладкая жизнь / La Dolce Vita (Федерико Феллини) [1960 г., Драма, DVDRip]
  • Мы так любили друг друга / Ceravamo tanto amati (Этторе Скола, Комедия, дра ...
  • Такое случается только с другими / Ca narrive quaux autres (Надин Трентинья ...
  • Процесс Жанны Д Арк / Proces de Jeanne dArc (Робер Брессон, драма, военный, ...
  • Сладкая жизнь / La Dolce Vita (Федерико Феллини, драма, комедия, 1959) [BDR ...
  • Цена славы / Price of Glory (Карлос Авила, Драма, спорт, 2000) [DVDRip, Про ...
  • Неподдающиеся (Юрий Чулюкин, комедия, 1959) [DVDRip, Не требуется]
  • Тристана / Tristana (Луис Бунюэль, Драма, 1970) [DVDRip, Профессиональный ( ...
  • Большой начальник (Вождь краснокожих) / Le grand chef (Анри Вернёй, комедия ...
  • Лето с Моникой / Sommaren med Monika (Ингмар Бергман, драма, мелодрама, 195 ...
  • Неверные / Le infedeli (Марио Моничелли, Стено, драма, комедия, 1953) [DVDR ...
  • Бог знает, мистер Аллисон / Heaven Knows, Mr. Allison (Джон Хьюстон, боевик ...
  • В то же время, в следующем году / Same Time, Next Year (Роберт Маллиган, др ...
  • Дьявольское око / Djдvulens цga (Ингмар Бергман, фэнтези, драма, комедия, 1 ...
  • Улица Прери / Rue des Prairies (Дени де Ла Пательер, драма, 1959) [DVDRip, ...
  • Псевдоним - Джесси Джеймс / Alias Jesse James (Норман З. МакЛеод, комедия, ...
  • Убей! / Kiru (Кихачи Окамото, боевик, драма, комедия, 1968) [DVDRip, Профес ...
  • Что навеял ветер / Something in the Wind (Ирвинг Пичел, мюзикл, комедия, 19 ...
  • Информация
    Посетители, находящиеся в группе Гости, не могут оставлять комментарии к данной публикации.