вход на сайт

Имя пользователя :
Пароль :

Восстановление пароля Регистрация
Азарт удачи / The Fortune Cookie (Билли Уайлдер, мелодрама, комедия, 1966) [DVDRip, Профессиональный (многоголосый закадровый)]
Рейтинг:
(голосов: 1)



[img]{THEME}/images/logopost.png[/img]





Азарт удачи / The Fortune Cookie

Год выпуска: 1966
Страна: США
Производство: Phalanx-Jalem, The Mirisch Corporation
Жанр: мелодрама, комедия

Режиссёр: Билли Уайлдер
В ролях: Джек Леммон, Уолтер Мэттау, Рон Рич, Джуди Уэст, Клифф Осмонд, Лёрин Таттл

Перевод: Профессиональный (многоголосый закадровый)
Субтитры: Отсутствуют

Описание:
Спортивный телевизионный оператор Гарри Хинкл совершенно случайно получает небольшую, совершенно не опасную для здоровья травму на работе от звезды НФЛ «Бум Бума» Джексона.

Сам пострадавший — лох и простофиля — особенных претензий к Буб Буму не имеет, но зато их имеют бывшая женушка Гарри, сразу решившая «восстановить» брак, и ее братец Вилли, хитрован-адвокат.

Они остро чувствуют запах наживы и разрабатывают план грандиозной аферы, цель которой получить бешеные отступные за мнимые увечья Хинкла…


Дополнительно:
MediaInfo ▼Text
Общее
Полное имя :K:РАЗДАЧААзарт удачиThe Fortune Cookie.avi
Формат :AVI
Размер :700 MiB
Продолжительность :02:00:18.000
Общий поток :814 Kbps
Программа кодирования :VirtualDubMod 1.5.10.1 (build 2439/release)
Библиотека кодирования :VirtualDubMod build 2439/release

Видео
Идентификатор :0
Формат :MPEG-4 Visual
Параметр BVOP формата :1
Параметр Qpel формата :No
Параметр GMC формата :0
Параметр Matrix формата :Default (H.263)
Идентификатор кодека :DX50
Продолжительность :2h 0mn 18s 0ms
Битрейт :708 Kbps
Ширина :640 pixels
Высота :256 pixels
Соотношение сторон :2.500
Частота кадров :25.000 fps
Глубина цвета :8 bits
Подвыборка цветности :4:2:0
Цветовое пространство :YUV
Тип развертки :Progressive
Бит/(Пиксели*Кадры) :0.173
Размер потока :610 MiB (87%)
Библиотека кодирования :DivX503b830p

Аудио #1
Идентификатор :1
Формат :MPEG Audio
Идентификатор кодека :55
Продолжительность :02:00:18.000
Вид битрейта :Constant
Битрейт :96.0 Kbps
Канал(ы) :2 channels
Частота :32.0 KHz
Метод сжатия :Lossy
Размер потока :82.6 MiB (12%)
4acab16d7f58cfc9aba948fa5dd549c0816581cbАзарт удачи / The Fortune Cookie (Билли Уайлдер, мелодрама, комедия, 1966) [DVDRip, Профессиональный (многоголосый закадровый)] Азарт удачи / The Fortune Cookie (Билли Уайлдер, мелодрама, комедия, 1966) [DVDRip, Профессиональный (многоголосый закадровый)] " />

Аплоадер: Админ, дата: 10-06-2012, 18:45, торрент скачан: 359 раз

Понравилась раздача? Посмотрите эти:
  • Частная жизнь Шерлока Холмса / The Private Life of Sherlock Holmes (Билли У ...
  • С другим лицом / Kudrat (Радж Н. Сиппи, драма, мелодрама, комедия, 1998) [D ...
  • Свидетель обвинения / Witness for the Prosecution (Билли Уайлдер, драма, де ...
  • Молчание - золото / Le silence est dor (Рене Клер, мелодрама, комедия, 1947 ...
  • Эй! В моем супе девушка / Theres a Girl in My Soup (Рой Боултинг, комедия, ...
  • Квартира / The Apartment (Билли Уайлдер, комедия, мелодрама, драма, 1960) [ ...
  • Как украсть миллион / How to steal a million (Уильям Уайлер, комедия, крими ...
  • Вальсирующие / Les valseuses (Бертран Блие, драма, комедия, криминал, 1966) ...
  • Свидетель обвинения / Witness for the Prosecution (Билли Уайлдер, триллер, ...
  • Гамбит / Gambit (Рональд Ним, комедия, криминал, 1966) [HDRip, Профессионал ...
  • Лизелотта из Пфальца / Liselotte von der Pfalz (Курт Хофманн, мелодрама, ко ...
  • Солдат удачи / Soldier of Fortune (Эдвард Дмитрык, приключения, драма, 1955 ...
  • Любовь после полудня / Love in the afternoon (Билли Уайлдер, комедия, драма ...
  • Консьерж / For Love or Money (Барри Зонненфельд, Мелодрама, комедия, 1993) ...
  • Аванти! / Avanti! (Билли Уайлдер, комедия, мелодрама, 1972) [DVDRip, Профес ...
  • Отец невесты / Father of the Bride (Винсенте Миннелли, комедия, мелодрама, ...
  • Потерянный уик-энд / The Lost weekend (Билли Уайлдер , драма, фильм-нуар, 1 ...
  • Хеллоу, Долли! / Hello, Dolly! (Джин Келли, мюзикл, мелодрама, комедия, сем ...
  • Улыбки летней ночи / Sommarnattens leende (Ингмар Бергман, мелодрама, комед ...
  • Драконы навсегда / Fei lung mang jeung (Саммо Хунг Кам-Бо, Кори Юэнь, боеви ...
  • Информация
    Посетители, находящиеся в группе Гости, не могут оставлять комментарии к данной публикации.