вход на сайт

Имя пользователя :
Пароль :

Восстановление пароля Регистрация
Спасите тигра / Save the Tiger (Джон Г. Эвилдсен, драма, 1973) [DVDRip, Профессиональный (двухголосый, закадровый)+оригинал]
Рейтинг:
(голосов: 1)



[img]{THEME}/images/logopost.png[/img]





Спасите тигра / Save the Tiger

Год выпуска: 1973
Страна: США
Производство: Cirandinha Productions, Filmways Pictures, Jalem Productions
Жанр: драма

Режиссёр: Джон Г. Эвилдсен
В ролях: Джек Леммон, Джек Гилфорд, Лори Хайнеман, Норман Бертон, Патриция Смит, Тейер Дэвид, Уильям Хансен, Харви Джейсон

Перевод: Профессиональный (двухголосый, закадровый)+оригинал
Субтитры: Отсутствуют

Описание:
Владелец швейной фабрики, находясь на грани банкротства и не зная, как свести концы с концами, решает нанять «специалиста» по поджогам, который поможет получить страховку…


Дополнительно:
Рейтинг MPAA: ▼
Рейтинг R - Лицам до 17 лет обязательно присутствие взрослого



MediaInfo ▼Text
Общее
Полное имя :K:РАЗДАЧАСпасите тиграspasite_tigra.avi
Формат :AVI
Размер :1.55 GiB
Продолжительность :01:40:28.488
Общий поток :2 212 Kbps
Программа кодирования :VirtualDubModRus 1.5.10.2 (build 2540/release)

Видео
Идентификатор :0
Формат :MPEG-4 Visual
Профиль формата :Advanced [email protected]
Параметр BVOP формата :1
Параметр Qpel формата :No
Параметр GMC формата :0
Параметр Matrix формата :Custom
Идентификатор кодека :XVID
Продолжительность :1h 40mn 28s 481ms
Битрейт :1 878 Kbps
Ширина :720 pixels
Высота :400 pixels
Соотношение сторон :1.800
Частота кадров :23.976 fps
Глубина цвета :8 bits
Подвыборка цветности :4:2:0
Цветовое пространство :YUV
Тип развертки :Progressive
Бит/(Пиксели*Кадры) :0.272
Размер потока :1.32 GiB (85%)
Библиотека кодирования :XviD0043

Аудио #1
Идентификатор :1
Формат :MPEG Audio
Идентификатор кодека :55
Продолжительность :01:40:28.488
Вид битрейта :Constant
Битрейт :128 Kbps
Канал(ы) :2 channels
Частота :48.0 KHz
Метод сжатия :Lossy
Размер потока :92.0 MiB (6%)

Аудио #2
Идентификатор :2
Формат :AC-3
Формат/Информация &nb
47460561aefc608dcc96058c2d2c5054828a7ff2Спасите тигра / Save the Tiger (Джон Г. Эвилдсен, драма, 1973) [DVDRip, Профессиональный (двухголосый, закадровый)+оригинал] Спасите тигра / Save the Tiger (Джон Г. Эвилдсен, драма, 1973) [DVDRip, Профессиональный (двухголосый, закадровый)+оригинал] " />

Аплоадер: Админ, дата: 6-06-2012, 10:09, торрент скачан: 359 раз

Понравилась раздача? Посмотрите эти:
  • Индеец-беглец / The Indian Runner (Шон Пенн, драма, 1991) [DVDRip, Професси ...
  • Влияние гамма-лучей на бледно-желтые ноготки / The Effect of Gamma Rays on ...
  • Поездка в Америку / Coming to America (Джон Лэндис, драма, мелодрама, комед ...
  • Королевская шлюха / La putain du roi (Аксель Корти, драма, мелодрама, прикл ...
  • Однажды на матрасе / Once Upon a Mattress (Кэтлин Маршалл, мюзикл, мелодрам ...
  • Синбад и Глаз Тигра / Sinbad and the Eye of the Tiger (Сэм Уонамейкер , фэн ...
  • Цена славы / Price of Glory (Карлос Авила, Драма, спорт, 2000) [DVDRip, Про ...
  • Злые улицы / Mean Streets (Мартин Скорсезе, драма, криминал, 1973) [HDRip, ...
  • Афера / The Sting (Джордж Рой Хилл, комедия, криминал, 1973) [DVDRip, Профе ...
  • Тристана / Tristana (Луис Бунюэль, Драма, 1970) [DVDRip, Профессиональный ( ...
  • Скорпион / Scorpio (Майкл Уиннер, драма, триллер, детектив, 1973) [DVDRip, ...
  • Бог знает, мистер Аллисон / Heaven Knows, Mr. Allison (Джон Хьюстон, боевик ...
  • Великий Уолдо Пеппер / The Great Waldo Pepper (Джордж Рой Хилл, драма, прик ...
  • Оскорбление / The Offence (Сидни Люмет, триллер, драма, криминал, 1972) [DV ...
  • Под покровом небес / The Sheltering Sky (Бернардо Бертолуччи, драма, мелодр ...
  • Сделано в Раю / Made in Heaven (Алан Рудольф, фэнтези, мелодрама, комедия, ...
  • Повышение / The Promotion (Стив Конрад, Комедия, 2008) [DVDRip, Профессиона ...
  • Соседи / Neighbors (Джон Г. Эвилдсен, Комедия, 1981) [HDTVRip, Профессионал ...
  • Турецкие наслаждения / Turks fruit (Пол Верховен, драма, мелодрама, 1973) [ ...
  • Авария / Breakdown (Джонатан Мостоу, боевик, триллер, драма, криминал, дете ...
  • Информация
    Посетители, находящиеся в группе Гости, не могут оставлять комментарии к данной публикации.