вход на сайт

Имя пользователя :
Пароль :

Восстановление пароля Регистрация
Трое на снегу / Drei Manner im Schnee (Альфред Форер, комедия, 1974) [DVDRip, Профессиональный (полное дублирование)]
Рейтинг:
(голосов: 1)



[img]{THEME}/images/logopost.png[/img]



Трое на снегу / Drei Manner im Schnee

Год выпуска: 1974
Страна: Германия
Производство: Roxy Film GmbH
Жанр: комедия

Режиссёр: Альфред Форер
В ролях: Клаус Шварцкопф, Роберто Бланко, Томас Фритш, Сюзанна Бек, Гритт Бётхер, Лина Карстенс, Элизабет Фолькманн, Херберт Флайшманн, Ингрид Штегер, Фриц Тилльманн

Перевод: Профессиональный (полное дублирование)
Субтитры: Отсутствуют

Описание:
Зимним вечером — тайком от домашних, без чемодана, только с зубной щеткой — владелец заводов, делец и коммерсант Отто Тоблер ступил за порог на снег и взял курс в горы, в комфортабельную альпийскую гостиницу «Хохгургль».


Дополнительно:
MediaInfo ▼Text
Общее
Полное имя :D:РаздачаТрое на снегуТрое на снегу.avi
Формат :AVI
Размер :505 MiB
Продолжительность :01:22:44.600
Общий поток :854 Kbps
Программа кодирования :VirtualDubMod 1.5.10.2 (build 2542/release)
Библиотека кодирования :VirtualDub build 32706/release

Видео
Идентификатор :0
Формат :MPEG-4 Visual
Профиль формата :Advanced [email protected]
Параметр BVOP формата :2
Параметр Qpel формата :No
Параметр GMC формата :0
Параметр Matrix формата :Default (H.263)
Идентификатор кодека :XVID
Продолжительность :1h 22mn 44s 600ms
Битрейт :716 Kbps
Ширина :550 pixels
Высота :410 pixels
Соотношение сторон :1.341
Частота кадров :25.000 fps
Глубина цвета :8 bits
Подвыборка цветности :4:2:0
Цветовое пространство :YUV
Тип развертки :Progressive
Бит/(Пиксели*Кадры) :0.127
Размер потока :424 MiB (84%)
Библиотека кодирования :XviD0058

Аудио #1
Идентификатор :1
Формат :MPEG Audio
Идентификатор кодека :55
Продолжительность :01:22:44.592
Вид битрейта :Constant
Битрейт :128 Kbps
Канал(ы) :2 channels
Частота :48.0 KHz
Метод сжатия :Lossy
Размер потока :75.8 MiB (15%)Тех. данные:
Качество:DVDRip
Продолжительность:01:22:40 час

Формат: AVI
Видео кодек: XviD
Аудио кодек: MPA1L3
Видео: 550 x
1405ca846e62e6e1393d2a0564ceefe30bfbcf8cТрое на снегу / Drei Manner im Schnee (Альфред Форер, комедия, 1974) [DVDRip, Профессиональный (полное дублирование)] Трое на снегу / Drei Manner im Schnee (Альфред Форер, комедия, 1974) [DVDRip, Профессиональный (полное дублирование)] " />

Аплоадер: Админ, дата: 27-05-2012, 04:23, торрент скачан: 359 раз

Понравилась раздача? Посмотрите эти:
  • Неприятности с Гарри / The Trouble with Harry (Альфред Хичкок, черная комед ...
  • Мы и наши горы (Генрих Малян, драма, комедия, 1969) [DVDRip, Профессиональн ...
  • Люди и манекены (4 части из 4) (Виктор Храмов, Аркадий Райкин, комедия, 197 ...
  • Кукарача (Кети Долидзе, Сико Долидзе, драма, 1982) [DVDRip, Профессиональны ...
  • Гикор (Сергей Исраелян, драма, семейный, 1982) [DVDRip, Профессиональный (п ...
  • Тоска (Фрунзе Довлатян, драма, 1990) [DVDRip, Профессиональный (полное дубл ...
  • Украденный поезд (Владимир Янчев, драма, 1971) [DVDRip, Профессиональный (п ...
  • Диверсанты / The Demolition Squad (Хайрудин Крвавац, военный, 1967) [DVDRip ...
  • Иван да Марья (Борис Рыцарев, фэнтези, мелодрама, комедия, семейный, музыка ...
  • Яд в стакане / Illatos ut a semmibe (Йожеф Магияр, комедия, 1974) [TVRip, П ...
  • Пропавшая грамота (Борис Ивченко, фэнтези, комедия, 1972) [DVDRip, Професси ...
  • Пари (Рамаз Шарабидзе, короткометражка, комедия, 1974) [TVRip, Профессионал ...
  • Я, бабушка, Илико и Илларион (Тенгиз Абуладзе, мелодрама, комедия, 1962) [D ...
  • Трое мужчин и младенец в люльке / 3 hommes et un couffin (Колин Серро, Коме ...
  • Слуги дьявола на Чёртовой мельнице (Александр Лейманис, комедия, приключени ...
  • Слуги Дьявола (Александр Лейманис, комедия, приключения, 1970) [DVDRip, Про ...
  • Саботаж / Sabotage (Альфред Хичкок, триллер, детектив, 1936) [DVDRip, Профе ...
  • Как украсть миллион / How to steal a million (Уильям Уайлер, комедия, крими ...
  • Неприятности с Гарри / The Trouble with Harry (Альфред Хичкок, комедия, три ...
  • Ужицкая республика / Uzicka Republika (Жика Митрович, драма, военный, 1974) ...
  • Информация
    Посетители, находящиеся в группе Гости, не могут оставлять комментарии к данной публикации.