вход на сайт

Имя пользователя :
Пароль :

Восстановление пароля Регистрация
Привет вам от гориллы / Le gorille vous salue bien (Бернар Бордери, боевик, драма, 1958) [DVDRip, Любительский (одноголосый)]
Рейтинг:
(голосов: 1)



[img]{THEME}/images/logopost.png[/img]



Привет вам от гориллы / Le gorille vous salue bien

Год выпуска: 1958
Страна: Франция
Производство: Les Films Raoul Ploquin, Societe Nouvelle Pathe Cinema
Жанр: боевик, драма

Режиссёр: Бернар Бордери
В ролях: Лино Вентура, Шарль Ванель, Белла Дарви, Рене Лефевр, Роберт Мануэль, Андрэ Вальми, Анри Кремье, Жан-Роже Коссимон, Жан-Макс

Перевод: Любительский (одноголосый)
Субтитры: Отсутствуют

Описание:
Горилла под видом шпиона пытается глубоко внедриться в преступный мир, якобы для передачи шпионской информации за рубеж. Некие иностранные резиденты использовали то ли в тёмную, то ли в чистую представителей преступного мира. Горилла пытается из нутра криминальной группировки проникнуть к источнику преступных козней и не без труда ему это удаётся.


Дополнительно:
MediaInfo ▼Text
Общее
Полное имя :K:РАЗДАЧАПривет вам от гориллыPrivet.vam.ot.gorilly.1958.DVDRip.avi
Формат :AVI
Размер :1.37 GiB
Продолжительность :01:40:39.000
Общий поток :1 943 Kbps
Программа кодирования :VirtualDubMod 1.5.4.1 (build 2178/release)
Библиотека кодирования :VirtualDubMod build 2178/release

Видео
Идентификатор :0
Формат :MPEG-4 Visual
Параметр BVOP формата :1
Параметр Qpel формата :No
Параметр GMC формата :0
Параметр Matrix формата :Default (H.263)
Идентификатор кодека :DX50
Продолжительность :1h 40mn 39s 0ms
Битрейт :1 808 Kbps
Ширина :640 pixels
Высота :288 pixels
Соотношение сторон :2.222
Частота кадров :25.000 fps
Глубина цвета :8 bits
Подвыборка цветности :4:2:0
Цветовое пространство :YUV
Тип развертки :Progressive
Бит/(Пиксели*Кадры) :0.392
Размер потока :1.27 GiB (93%)
Библиотека кодирования :DivX503b1328p

Аудио #1
Идентификатор :1
Формат :MPEG Audio
Идентификатор кодека :55
Продолжительность :01:40:39.000
Вид битрейта :Constant
Битрейт :128 Kbps
Канал(ы) :2 channels
Частота :48.0 KHz
Метод сжатия :Lossy
Размер потока :92.1 MiB (7%)
Язык :Rus
5ce5625993a848a3b5efb216cef680d9fb8f26cfПривет вам от гориллы / Le gorille vous salue bien (Бернар Бордери, боевик, драма, 1958) [DVDRip, Любительский (одноголосый)] Привет вам от гориллы / Le gorille vous salue bien (Бернар Бордери, боевик, драма, 1958) [DVDRip, Любительский (одноголосый)] " />

Аплоадер: Админ, дата: 5-03-2012, 08:35, торрент скачан: 359 раз

Понравилась раздача? Посмотрите эти:
  • Дружок (Виктор Эйсымонт, семейный, 1958) [DVDRip, Не требуется]
  • Король нищих / Mo jong yuen So Hat-Yi (Гордон Чан, боевик, драма, комедия, ...
  • Капитанская дочка (Владимир Каплуновский, драма, 1958) [DVDRip, Не требуетс ...
  • Партизанская эскадрилья / Partizanska eskadrila (Хайрудин Крвавац, драма, в ...
  • След кота (Уильям А. Уэллмен, драма, вестерн, 1954) [DVDRip, Любительский ( ...
  • Пуск торпеды / Torpedo Run (Джозеф Пивни, драма, военный, 1958) [DVDRip, Ав ...
  • Кошка на раскаленной крыше / Cat on a Hot Tin Roof (Ричард Брукс, драма, 19 ...
  • Лиловая равнина / The Purple Plain (Роберт Пэрриш, боевик, драма, приключен ...
  • Кутилы / Les bons vivants (Жиль Гранжье, Жорж Лотнер, драма, комедия, 1965) ...
  • Будь красивой и молчи / Sois belle et tais-toi (Марк Аллегре, комедия, 1958 ...
  • ЧП – Чрезвычайное происшествие (2 части из 2-х) (Виктор Ивченко, боевик, 19 ...
  • Нет мира под оливами / Non ce pace tra gli ulivi (Джузеппе де Сантис, драма ...
  • Бравадос / The Bravados (Генри Кинг, драма, вестерн, 1958) [DVDRip, Професс ...
  • Калифорнийский отель / California Suite (Херберт Росс, мелодрама, комедия, ...
  • Урок любви / En lektion i karlek (Ингмар Бергман, драма, комедия, 1954) [DV ...
  • Ростовщик / The Pawnbroker (Сидни Люмет, драма, 1964) [DVDRip, Любительский ...
  • Человек диких прерий / Man in the Wilderness (Ричард С. Сарафьян, приключен ...
  • Голубая стрела (Леонид Эстрин, боевик, 1958) [DVDRip, Не требуется]
  • Мамлюк (Давит Рондели, боевик, мелодрама, приключения, военный, 1958) [DVDR ...
  • Медведи и я / The Bears and I (Бернард МакЭвети, драма, семейный, 1974) [DV ...
  • Информация
    Посетители, находящиеся в группе Гости, не могут оставлять комментарии к данной публикации.