вход на сайт

Имя пользователя :
Пароль :

Восстановление пароля Регистрация
Беляночка и Розочка / Schneeweisschen und Rosenrot (Зигфрид Хартманн, сказка, 1979) [DVDRip, Профессиональный (полное дублирование)]
Рейтинг:
(голосов: 1)



[img]{THEME}/images/logopost.png[/img]



Беляночка и Розочка / Schneeweisschen und Rosenrot

Год выпуска: 1979
Страна: Германия
Производство: Киностудия Дефа
Жанр: сказка

Режиссёр: Зигфрид Хартманн
В ролях: Юлия Юриштова, Катрин Мартин, Ганс-Питер Минетти, Павел Травничек, Бодо Вульф

Перевод: Профессиональный (полное дублирование)
Субтитры: Отсутствуют

Описание:
Экранизация сказки братьев Гримм о двух сестрах - Беляночке и Розочке, своей любовью спасших принцев Михаэля и Андреаса от злых чар Горного Духа.


Дополнительно:
MediaInfo ▼Text
Общее
Полное имя :D:РаздачаБеляночка и Розочкаeljanochka_i_rozochka.avi
Формат :AVI
Размер :1.22 GiB
Продолжительность :01:06:01.640
Общий поток :2 645 Kbps
Библиотека кодирования :VirtualDub build 32817/release

Видео
Идентификатор :0
Формат :MPEG-4 Visual
Параметр BVOP формата :1
Параметр Qpel формата :No
Параметр GMC формата :0
Параметр Matrix формата :Default (H.263)
Идентификатор кодека :DX50
Продолжительность :1h 6mn 1s 640ms
Битрейт :2 379 Kbps
Ширина :720 pixels
Высота :544 pixels
Соотношение сторон :1.324
Частота кадров :25.000 fps
Глубина цвета :8 bits
Подвыборка цветности :4:2:0
Цветовое пространство :YUV
Тип развертки :Progressive
Бит/(Пиксели*Кадры) :0.243
Размер потока :1.10 GiB (90%)
Библиотека кодирования :DivX503b2816p

Аудио #1
Идентификатор :1
Формат :AC-3
Формат/Информация :Audio Coding 3
Идентификатор кодека :2000
Продолжительность :01:06:01.640
Вид битрейта :Constant
Битрейт :256 Kbps
Канал(ы) :2 channels
Расположение каналов :Front: L R
Частота :48.0 KHz
Битовая глубина :16 bits
Метод сжатия :Lossy
Размер потока :121 MiB (10%)Тех. данные:
Качество:DVDRip
Продолжительность:01:06:00 час

Формат: AVI
Видео кодек: DivX
Аудио кодек: AC3
Видео: 720 x 544 (4:3), 25.000 fps, 2 379 Kbps, 0.243 bit/pixel
Аудио : 48.0 KHz, Audi
f9354c5e05bcc9153ad12b252635e1a5d1e3651dБеляночка и Розочка / Schneeweisschen und Rosenrot (Зигфрид Хартманн, сказка, 1979) [DVDRip, Профессиональный (полное дублирование)] Беляночка и Розочка / Schneeweisschen und Rosenrot (Зигфрид Хартманн, сказка, 1979) [DVDRip, Профессиональный (полное дублирование)] " />

Аплоадер: Админ, дата: 12-12-2011, 12:25, торрент скачан: 359 раз

Понравилась раздача? Посмотрите эти:
  • Айрик (Генрих Малян, драма, семейный, 1972) [DVDRip, Профессиональный (пол ...
  • Кукарача (Кети Долидзе, Сико Долидзе, драма, 1982) [DVDRip, Профессиональны ...
  • Гикор (Сергей Исраелян, драма, семейный, 1982) [DVDRip, Профессиональный (п ...
  • Гнездо на ветру (Олав Неуланд, драма, 1979) [DVDRip, Профессиональный (полн ...
  • Тоска (Фрунзе Довлатян, драма, 1990) [DVDRip, Профессиональный (полное дубл ...
  • Старшина (Николай Кошелев, драма, 1979) [DVDRip, Не требуется]
  • Украденный поезд (Владимир Янчев, драма, 1971) [DVDRip, Профессиональный (п ...
  • Диверсанты / The Demolition Squad (Хайрудин Крвавац, военный, 1967) [DVDRip ...
  • Завтрак на траве (Николай Александрович, детский, комедия, 1979) [DVDRip, Н ...
  • В 12 часов придет босс / 12 Uhr mittags kommt der Boß (Зигфрид Хартманн, де ...
  • Сватовство гусара (Светлана Дружинина, мюзикл, мелодрама, комедия, 1979) [D ...
  • Легенда о МорДу / The Legend of MorDu (Брайан Ларсен, Короткометражный, ска ...
  • Термометр (Рамаз Шарабидзе, короткометражка, 1976) [TVRip, Профессиональный ...
  • Удача (Баадур Цуладзе, короткометражка, комедия, 1980) [TVRip, Профессионал ...
  • Я, бабушка, Илико и Илларион (Тенгиз Абуладзе, мелодрама, комедия, 1962) [D ...
  • Слуги дьявола на Чёртовой мельнице (Александр Лейманис, комедия, приключени ...
  • Слуги Дьявола (Александр Лейманис, комедия, приключения, 1970) [DVDRip, Про ...
  • Соловей (Надежда Кошеверова, мюзикл, семейный, 1979) [DVDRip, Не требуется] ...
  • Беляночка и Розочка / Schneeweisschen und Rosenrot ( Зигфрид Хартманн, ска ...
  • Будучи там / Being There (Хэл Эшби, драма, комедия, 1979) [DVDRip, Професси ...
  • Бравый солдат Швейк / Dobry vojak Svejk (Карел Стеклы, комедия, военный, 19 ...
  • Экспериментатор / Slunce, seno, jahody (Зденек Трошка, Комедия, 1984) [DVDR ...
  • Братья по крови / Blutsbruder (Вернер В. Валльрот, драма, вестерн, 1975) [D ...
  • Девичий заговор / Rzeczpospolita babska (Хероним Пшибыл, комедия, 1969) [DV ...
  • Скандал в Клошмерле / Clochemerle (Пьер Шеналь, комедия, 1948) [DVDRip, Про ...
  • Информация
    Посетители, находящиеся в группе Гости, не могут оставлять комментарии к данной публикации.