вход на сайт

Имя пользователя :
Пароль :

Восстановление пароля Регистрация
Король Лир / King Lear (Питер Брук, трагедия, 1970) [DVDRip, Профессиональный (многоголосый, закадровый)+оригинал]
Рейтинг:
(голосов: 1)



[img]{THEME}/images/logopost.png[/img]



Король Лир / King Lear

Год выпуска: 1970
Страна: Великобритания, Дания
Производство: Athena Films, Filmways, Filmways Pictures, Laterna Film, Royal Shakespeare Company
Жанр: трагедия

Режиссёр: Питер Брук
В ролях: Сирил Кьюcак, Сьюзэн Энджел, Том Флеминг, Анне-Лисе Габольд, Йен Хогг, Сорен Эланг Дженсен, Роберт Лэнгдон Ллойд, Джек МакГоурэн, Патрик Мэги, Пол Скофилд

Перевод: Профессиональный (многоголосый, закадровый)+оригинал
Субтитры: Отсутствуют

Описание:
Классическая экранизация пьесы Уильяма Шекспира о короле, решившем облегчить себе жизнь, разделив бремя власти между тремя дочерьми. Постановка осуществлена при поддержке Королевского Шекспировского общества. Лир в исполнении Пола Сколфилда считается одним из лучших воплощений шекспировских персонажей в истории театра.


Дополнительно:
MediaInfo ▼Text
Общее
Полное имя :D:РаздачаКороль ЛирKing Lear.avi
Формат :AVI
Размер :1.49 GiB
Продолжительность :02:11:57.000
Общий поток :1 618 Kbps
Программа кодирования :VirtualDubMod 1.5.10.2 (build 2540/release)

Видео
Идентификатор :0
Формат :MPEG-4 Visual
Профиль формата :Advanced [email protected]
Параметр BVOP формата :2
Параметр Qpel формата :No
Параметр GMC формата :0
Параметр Matrix формата :Default (H.263)
Идентификатор кодека :XVID
Продолжительность :2h 11mn 57s 0ms
Битрейт :1 380 Kbps
Ширина :576 pixels
Высота :416 pixels
Соотношение сторон :1.385
Частота кадров :25.000 fps
Глубина цвета :8 bits
Подвыборка цветности :4:2:0
Цветовое пространство :YUV
Тип развертки :Progressive
Бит/(Пиксели*Кадры) :0.230
Размер потока :1.27 GiB (85%)
Библиотека кодирования :XviD0037

Аудио #1
Идентификатор :1
Формат :MPEG Audio
Идентификатор кодека :55
Продолжительность :02:11:56.760
Вид битрейта :Constant
Битрейт :96.0 Kbps
Канал(ы) :1 channel
Частота :48.0 KHz
Метод сжатия :Lossy
Размер потока :90.6 MiB (6%)

Аудио #2
Идентификатор :2
Форм
b12a318f479fb3625770064762d28e5f6e898e11Король Лир / King Lear (Питер Брук, трагедия, 1970) [DVDRip, Профессиональный (многоголосый, закадровый)+оригинал] Король Лир / King Lear (Питер Брук, трагедия, 1970) [DVDRip, Профессиональный (многоголосый, закадровый)+оригинал] " />

Аплоадер: Админ, дата: 30-11-2011, 17:18, торрент скачан: 359 раз

Понравилась раздача? Посмотрите эти:
  • Быстрее ветра / King of the wind (Питер Даффелл, приключения, 1990) [DVDRip ...
  • Если бы я был королём / If I Were King (Фрэнк Ллойд, приключения, история, ...
  • Обнаженная / Naked (Майк Ли, драма, комедия, 1993) [DVDRip, (2х)Профессиона ...
  • Мы – одна команда / We Are Marshall (Джеми Линден, Кори Хелмс, Драма, спорт ...
  • Королевский моряк / Single-Handed (Рой Боултинг, боевик, драма, военный, 19 ...
  • Эй! В моем супе девушка / Theres a Girl in My Soup (Рой Боултинг, комедия, ...
  • Лев зимой / The Lion in Winter (Энтони Харви, драма, история, 1968) [DVDRip ...
  • Жить, чтобы жить / Vivre Pour Vivre (Клод Лелуш, драма, 1967) [DVDRip, Проф ...
  • Человек, который хотел быть королем / The Man Who Would Be King (Джон Хьюст ...
  • Тристана / Tristana (Луис Бунюэль, Драма, 1970) [DVDRip, Профессиональный ( ...
  • Король Генрих V / The Chronicle History of King Henry the Fift with His Bat ...
  • Король - полярный медведь / Kvitebjorn Kong Valemon (Ola Solum, фэнтези, пр ...
  • Королева викингов / The Viking Queen (Дон Чэффи, боевик, приключения, 1967) ...
  • Повелитель мух / Lord of the Flies (Питер Брук, триллер, драма, приключения ...
  • Прощай, король / Farewell to the King (Джон Милиус, боевик, драма, приключе ...
  • Уик-энд / Week End (Жан-Люк Годар, драма, комедия, 1967) [DVDRip, Профессио ...
  • Властелин джунглей / Ghatothkach (Сингитам Шриниваса Рао, мультфильм, 2008) ...
  • Улица Прери / Rue des Prairies (Дени де Ла Пательер, драма, 1959) [DVDRip, ...
  • Зов предков / The Call of the Wild: Dog of the Yukon (Питер Сватек, приключ ...
  • Король Ральф / King Ralph (Дэвид С. Уорд, мелодрама, комедия, 1991) [HDTVRi ...
  • Информация
    Посетители, находящиеся в группе Гости, не могут оставлять комментарии к данной публикации.