вход на сайт

Имя пользователя :
Пароль :

Восстановление пароля Регистрация
Психоаналитик президента / The Presidents Analyst (Теодор Дж. Фликер, Фантастика, триллер, комедия, 1967) [DVDRip, Любительский (одноголосый закадровый)]
Рейтинг:
(голосов: 1)



[img]{THEME}/images/logopost.png[/img]



Психоаналитик президента / The Presidents Analyst

«The picture dedicated to life, liberty and the pursuit of happenings.»

Год выпуска: 1967
Страна: США
Производство: Panpiper Productions, Paramount Pictures
Жанр: Фантастика, триллер, комедия

Режиссёр: Теодор Дж. Фликер / Theodore J. Flicker
В ролях: Джеймс Коберн, Годфри Кэмбридж, Северн Дарден, Джоан Делани, Пэт Харингтон мл., Бэрри МакГуайр, Джилл Баннер, Эдуард Франц, Уолтер Бурк, Уилл Гир

Перевод: Любительский (одноголосый закадровый)
Озвучка: Романов Алексей (LeXiKC)
Субтитры:Нету

Описание
Доктор Сидней Шеферт ведет скучную жизнь психоаналитика, изо дня в день выслушивая пациентов. Но однажды Дон Мастерс, один их клиентов Шеферта, признается ему, что на самом деле является секретным агентом секретной службы, и предлагает Шеферту стать психоаналитиком президента США. Шеферт приходит в восторг от столь лестного предложения, и немедленно соглашается. Но доктор явно не понимает, во что он впутался. Ведь теперь ему известны всё, что делается в голове президента, а такая информация – предел мечтаний для любой разведки. За доктором начинают охоту шпионы всего мира. После чего обеспокоенные руководители секретной службы и ФБР независимо друг от друга принимают решение... убить Шеферта. За что? А слишком много знает, вот за что. Лучше убить его от греха подальше, чтобы не выдал врагам Америки какой-нибудь важный секрет.



Доп. информация
Премьеры ▼
21 декабря 1967 США
10 мая 1968 Финляндия
31 мая 1968 Германия (ФРГ)
9 декабря 1968 Швеция
Рейтинг MPAA ▼
Детям до 13 лет просмотр не желателен
Mediainfo ▼TextGeneral
Complete name : D:Мои раздачиThe Presidents Analyst_745.avi
Format : AVI
Format/Info : Audio Video Interleave
File size : 746 MiB
Duration : 1h 42mn
Overall bit rate : 1 013 Kbps
Writing application : VirtualDubMod 1.5.10.3 | www.virtualdub-fr.org || (build 2550/release)
Writing library : VirtualDubMod build 2550/release

Video
ID : 0
Format : MPEG-4 Visual
Format profile : Advanced [email protected]
Format settings, BVOP : Yes
Format settings, QPel : No
Format settings, GMC : No warppoints
Format settings, Matrix : Custom
Codec ID : XVID
Codec ID/Hint : XviD
Duration : 1h 42mn
Bit rate : 876 Kbps
Width : 688 pixels
Height : 288 pixels
Display aspect ratio : 2.35:1
Frame rate : 23.976 fps
Color space : YUV
Chroma subsampling : 4:2:0
Bit depth : 8 bits
Scan type : Progressive
Compression mode : Lossy
Bits/(Pixel*Frame) : 0.184
Stream size : 645 MiB (86%)
Writing library : XviD 1.2.1 (UTC 2008-12-04)

Audio
ID : 1
Format : MPEG Audio
Format version : Version 1
Format profile : Layer 3
Codec ID : 55
Codec ID/Hint : MP3
Duration : 1h 42mn
Bit rate mode : Constant
Bit rate : 128 Kbps
Channel(s) : 2 channels
Sampling rate : 48.0 KHz
Compression mode : Lossy
Stream size : 94.2 MiB (13%)
Alignment : Aligned on interleaves
Interleave, duration : 42 ms (1.00 video frame)
Interleave, preload duration : 504 ms
Writing library : LAME3.98r
Encoding settings : -m s -V 4 -q 2 -lowpass 17 -b 128[/ code]

Тех. данные
Качество: DVDRip
Продолжительность: 01:42:54 час.

Формат: AVI
Видео кодек: XviD
Аудио кодек: MPEG
Видео: 688x288 (2.39:1), 23.976 fps, XviD build 50, 875 kbps avg, 0.18 bit/pixel
Аудио: Русский: 48 kHz, MPEG Layer 3, 2 ch, 128.00 kbps avg


|Cтол заказов| Наши раздачи| Набор в группу|


fa193d41ad6b8d8a14d534dabf058858f0667d19Психоаналитик президента / The Presidents Analyst (Теодор Дж. Фликер, Фантастика, триллер, комедия, 1967) [DVDRip, Любительский (одноголосый закадровый)] Психоаналитик президента / The Presidents Analyst (Теодор Дж. Фликер, Фантастика, триллер, комедия, 1967) [DVDRip, Любительский (одноголосый закадровый)] " />

Аплоадер: Админ, дата: 5-09-2011, 00:47, торрент скачан: 359 раз

Понравилась раздача? Посмотрите эти:
  • Вирус / Flu (Ким Сон Су, Драма, 2013) [HDTVRip, Любительский (двухголосый з ...
  • Мэрайа Мунди и шкатулка Мидаса / The Adventurer: The Curse of the Midas Box ...
  • Спасти генерала Яна / Saving General Yang (Ронни Ю, Боевик, Триллер, 2013) ...
  • Мужество / Wymyk (Грег Зглински, драма, 2011) [DVDRip, Любительский (одного ...
  • Берлинское дело / The Berlin File (Рю Сын Ван, Боевик, триллер, драма, 2013 ...
  • Колония / The Colony (Джефф Ренфро, фантастика, боевик, триллер, 2013) [DVD ...
  • Игра смерти / Game of death (Роберт Клауз, Саммо Хунг Кам-Бо, Брюс Ли, боев ...
  • Псы войны / The Dogs of War (Джон Ирвин, боевик, драма, приключения, военны ...
  • Космические Мутанты / Mutant Aliens (Билл Плимптон, мультфильм, фантастика, ...
  • Новые парни турбо / New Kids Turbo (Штефен Хаарс, Боевик, комедия, 2010) [H ...
  • Тюремщик / Screwed (Рег Тревисс / Reg Traviss, Драма, 2011) [DVDRip , Люби ...
  • Чемпионат Европы 2012 / Группа D / 1-й тур / Украина - Швеция / Спорт 1 [11 ...
  • Вскрытие инопланетянина/Alien Autopsy (Джонни Кэмпбелл, Комедия, фантастика ...
  • Скуби-Ду: Нападение Пантазаура / Scooby-Doo! Legend of the Phantosaur (Дугл ...
  • Синдикат смерти / Fleisch (Оливер Шмитц / Oliver Schmitz, Фантастика, трилл ...
  • Повторяющие / Repeaters (режиссёр, фантастика, триллер, драма, 2010) [DVDRi ...
  • Неприкасаемые / Intouchables (Оливье Накаш, Эрик Толедано, Драма, 2011) [BD ...
  • Мокрый коврик / Mortal Kombat (Пол У. С. Андерсон, Пародия, 1995) [DVDRip, ...
  • Романтики / The Romantics (Галт Нидерхоффер, Драма, мелодрама, комедия, 201 ...
  • Чемпионат Европы 2012 / Группа B / 1-й тур / Германия - Португалия / Спорт ...
  • Глушь / Resurrection County (Matt Zettell, ужасы, триллер, 2008) [DVDRip, П ...
  • Искажение / Skew (Сейв Челенз, ужасы, триллер, 2011) [HDRip, Профессиональн ...
  • Ничего, кроме правды / Nothing But the Truth (Род Лури, триллер, драма, 200 ...
  • Обрезание / Excision (Ричард Бейтс мл., ужасы, драма, комедия,2012) [HDRip, ...
  • Петля времени / Looper (Райан Джонсон, фантастика, боевик, триллер, 2012) [ ...
  • Информация
    Посетители, находящиеся в группе Гости, не могут оставлять комментарии к данной публикации.