вход на сайт

Имя пользователя :
Пароль :

Восстановление пароля Регистрация
Похищенный / Kidnapped (Роберт Стивенсон, драма, приключения, семейный, 1960) [DVDRip, Профессиональный (многоголосый, закадровый)]
Рейтинг:
(голосов: 1)



[img]{THEME}/images/logopost.png[/img]



Похищенный / Kidnapped

Год выпуска: 1960
Страна: США, Великобритания
Производство: Walt Disney Productions
Жанр: драма, приключения, семейный

Режиссёр: Роберт Стивенсон
В ролях: Питер Финч, Джеймс МакАртур, Бернард Ли, Джон Лори, Ниалл МакГиннис, Финлэй Карри, Майлз Маллесон, Дункан МакРэй, Эндрю Крикшэнк, Питер О’Тул

Перевод: Профессиональный (многоголосый, закадровый)
Субтитры: Отсутствуют

Описание:
Молодой человек Дэвид Балфур отправляется с письмом в поместье к своему дяде, младшему брату умершего отца. Юноша должен вступить во владение наследством. Но жестокий и коварный дядя вовсе не спешит расставаться со своими владениями.

Он придумывает хитрый план. Племянника похищают пираты, чтобы потом продать на аукционе рабов в Южной Каролине. Но судьба благосклонна к Дэвиду. Она посылает ему спасение в лице лучшего воина Шотландии благородный рыцаря Элана Стюарта, попавшего на тот же корабль.


Дополнительно:
MediaInfo ▼Text
Общее
Полное имя :L:РАЗДАЧАПохищенныйKidnapped.avi
Формат :AVI
Размер :700 MiB
Продолжительность :01:34:34.119
Общий поток :1 035 Kbps

Видео
Идентификатор :0
Формат :MPEG-4 Visual
Параметр BVOP формата :1
Параметр Qpel формата :No
Параметр GMC формата :0
Параметр Matrix формата :Default (H.263)
Идентификатор кодека :DX50
Продолжительность :1h 34mn 34s 119ms
Битрейт :946 Kbps
Ширина :720 pixels
Высота :544 pixels
Соотношение сторон :1.324
Частота кадров :23.976 fps
Глубина цвета :8 bits
Подвыборка цветности :4:2:0
Цветовое пространство :YUV
Тип развертки :Progressive
Бит/(Пиксели*Кадры) :0.101
Размер потока :640 MiB (91%)
Библиотека кодирования :DivX503b2521p

Аудио #1
Идентификатор :1
Формат :MPEG Audio
Идентификатор кодека :55
Продолжительность :01:34:33.408
Вид битрейта :Constant
Битрейт :80.0 Kbps
Канал(ы) :1 channel
Частота :48.0 KHz
Метод сжатия :Lossy
Размер потока :54.1 MiB (8%)
Язык : cТех. данные:
Качес
f474deeae5c676265ccbfd38d5925000266fc660Похищенный / Kidnapped (Роберт Стивенсон, драма, приключения, семейный, 1960) [DVDRip, Профессиональный (многоголосый, закадровый)] Похищенный / Kidnapped (Роберт Стивенсон, драма, приключения, семейный, 1960) [DVDRip, Профессиональный (многоголосый, закадровый)] " />

Аплоадер: Админ, дата: 26-02-2011, 00:07, торрент скачан: 359 раз

Понравилась раздача? Посмотрите эти:
  • Заверните мне норку / Make Mine Mink (Роберт Эшер, комедия, 1960) [DVDRip, ...
  • Рыжик (Илья Фрэз, приключения, семейный, 1960) [DVDRip, Не требуется]
  • Апач / Apache (Роберт Олдрич, вестерн, 1954) [DVDRip, Профессиональный (мно ...
  • Набалдашник и метла / Bedknobs and Broomsticks (Walt Disney Productions, пр ...
  • С террасы / From the Terrace (Марк Робсон, драма, мелодрама, 1960) [DVDRip, ...
  • Постоялый двор шестой степени счастья / The Inn of the Sixth Happiness (Мар ...
  • Песчаные крысы / The Desert Rats (Роберт Уайз, боевик, драма, приключения, ...
  • Семья Робинзонов (Швейцарская семья Робинзонов) / Swiss Family Robinson (Дж ...
  • Чудесное спасение белых скакунов / Miracle of the White Stallions (Артур Хи ...
  • Таинственный остров / Остров приключений / Mysterious Island (Сай Эндфилд, ...
  • Баттерфилд 8 / Butterfield 8 (Дэниэл Манн, драма, 1960) [DVDRip, Профессион ...
  • Лиловая равнина / The Purple Plain (Роберт Пэрриш, боевик, драма, приключен ...
  • Бог знает, мистер Аллисон / Heaven Knows, Mr. Allison (Джон Хьюстон, боевик ...
  • Королева викингов / The Viking Queen (Дон Чэффи, боевик, приключения, 1967) ...
  • Погоня за Бенджи / Benji the Hunted (Джо Кэмп, приключения, семейный, 1987) ...
  • Повелитель мух / Lord of the Flies (Питер Брук, триллер, драма, приключения ...
  • Дьявольское око / Djдvulens цga (Ингмар Бергман, фэнтези, драма, комедия, 1 ...
  • Старый Брехун / Old Yeller (Роберт Стивенсон, драма, комедия, приключения, ...
  • Зов предков / The Call of the Wild: Dog of the Yukon (Питер Сватек, приключ ...
  • Медведи и я / The Bears and I (Бернард МакЭвети, драма, семейный, 1974) [DV ...
  • Информация
    Посетители, находящиеся в группе Гости, не могут оставлять комментарии к данной публикации.