вход на сайт

Имя пользователя :
Пароль :

Восстановление пароля Регистрация
Магазинчик за углом / The Shop Around the Corner (Эрнст Любич, драма, мелодрама, комедия, 1940) [DVDRip, Профессиональный (многоголосый, закадровый)]
Рейтинг:
(голосов: 1)



[img]{THEME}/images/logopost.png[/img]



Магазинчик за углом / The Shop Around the Corner

Год выпуска: 1940
Страна: США
Производство: Loews Inc., Metro-Goldwyn-Mayer (MGM)
Жанр: драма, мелодрама, комедия

Режиссёр: Эрнст Любич
В ролях: Маргарет Саллаван, Джеймс Стюарт, Фрэнк Морган, Джозеф Шилдкраут, Сара Хейден, Феликс Брессарт, Уильям Трэйси, Инез Кортни, Сара Эдвардс, Эдвин Максвелл

Перевод: Профессиональный (многоголосый, закадровый)
Субтитры: Отсутствуют

Описание:
«Матюшек и Ко.» — магазин подарков и сувениров на углу. В штате есть сотрудник — Альфред Кралик, симпатичный молодой человек, который влюблен в девушку, которую он никогда не видел, и даже не знает имени (их «роман» завязался через почтовый ящик, по переписке).


Дополнительно:
MediaInfo ▼Text
Общее
Полное имя :K:РАЗДАЧАМагазинчик за угломThe_Shop_Around_Corner.avi
Формат :AVI
Размер :1 000 MiB
Продолжительность :01:38:45.840
Общий поток :1 415 Kbps
Программа кодирования :FairUse Wizard - http://fairusewizard.com
Библиотека кодирования :The best and REALLY easy backup tool

Видео
Идентификатор :0
Формат :MPEG-4 Visual
Профиль формата :Advanced [email protected]
Параметр BVOP формата :2
Параметр Qpel формата :No
Параметр GMC формата :0
Параметр Matrix формата :Default (MPEG)
Идентификатор кодека :XVID
Продолжительность :1h 38mn 45s 840ms
Битрейт :1 278 Kbps
Ширина :576 pixels
Высота :416 pixels
Соотношение сторон :1.385
Частота кадров :25.000 fps
Глубина цвета :8 bits
Подвыборка цветности :4:2:0
Цветовое пространство :YUV
Тип развертки :Progressive
Бит/(Пиксели*Кадры) :0.213
Размер потока :903 MiB (90%)
Библиотека кодирования :XviD0047

Аудио #1
Идентификатор :1
Формат :MPEG Audio
Идентификатор кодека :55
Продолжительность :01:38:45.840
Вид битрейта :Constant
Битрейт :128 Kbps
Канал(ы) :2 channels
Частота :48.0 KHz
Метод сжатия :Lossy
Размер потока :90.4 MiB (9%)Тех. данные:
Качество:DVDRip
Продолжит
e95efd2a4705ad95797462021d547d98cbd3d85cМагазинчик за углом / The Shop Around the Corner (Эрнст Любич, драма, мелодрама, комедия, 1940) [DVDRip, Профессиональный (многоголосый, закадровый)] Магазинчик за углом / The Shop Around the Corner (Эрнст Любич, драма, мелодрама, комедия, 1940) [DVDRip, Профессиональный (многоголосый, закадровый)] " />

Аплоадер: Админ, дата: 22-02-2011, 22:38, торрент скачан: 359 раз

Понравилась раздача? Посмотрите эти:
  • Вечерние посетители / Les visiteurs du soir (Марсель Карне, фэнтези, драма, ...
  • Оклеветанная / Libeled Lady (Джек Конуэй, мелодрама, комедия, 1936) [DVDRip ...
  • Ниночка / Ninotchka (Эрнст Любич, мелодрама, комедия, 1939) [WEB-DL 720p, ( ...
  • Поездка в Америку / Coming to America (Джон Лэндис, драма, мелодрама, комед ...
  • С другим лицом / Kudrat (Радж Н. Сиппи, драма, мелодрама, комедия, 1998) [D ...
  • Освобождение (Александр Довженко, Юлия Солнцева, документальный, 1940) [DVD ...
  • Моя любовь (Владимир Корш-Саблин, мюзикл, мелодрама, комедия, 1940) [DVDRip ...
  • Великий диктатор / The Great Dictator (Чарльз Чаплин, драма, комедия, военн ...
  • Молчание - золото / Le silence est dor (Рене Клер, мелодрама, комедия, 1947 ...
  • Джентельменское соглашение / Gentlemans Agreement (Элиа Казан, драма, мелод ...
  • Странный груз / Strange Cargo (Фрэнк Борзеги, драма, мелодрама, 1940) [DVDR ...
  • С террасы / From the Terrace (Марк Робсон, драма, мелодрама, 1960) [DVDRip, ...
  • Сердце и души / Heart and Souls (Рон Андервуд, фэнтези, драма, мелодрама, к ...
  • Если бы у меня был миллион / If I Had a Million (Джеймс Круз, Х. Брюс Хамбе ...
  • Вальсирующие / Les valseuses (Бертран Блие, драма, комедия, криминал, 1966) ...
  • Баттерфилд 8 / Butterfield 8 (Дэниэл Манн, драма, 1960) [DVDRip, Профессион ...
  • Сисси - молодая императрица / Sissi - Die junge Kaiserin (Эрнст Маришка, ме ...
  • Под знаком Козерога / Under Capricorn (Альфред Хичкок, драма, мелодрама, 19 ...
  • Укрощение строптивой / The Taming of the Shrew (Франко Дзеффирелли, комедия ...
  • Лето с Моникой / Sommaren med Monika (Ингмар Бергман, драма, мелодрама, 195 ...
  • День добрый, улыбка! / Bonjour sourire! (Клод Соте, комедия, 1956) [DVDRip, ...
  • Мост Ватерлоо / Waterloo Bridge (Мервин ЛеРой, драма, мелодрама, военный, 1 ...
  • Отец невесты / Father of the Bride (Винсенте Миннелли, комедия, мелодрама, ...
  • Уик-энд / Week End (Жан-Люк Годар, драма, комедия, 1967) [DVDRip, Профессио ...
  • Школа воров 2 / Scuola di ladri - parte seconda (Нери Паренти, Комедия, 198 ...
  • Информация
    Посетители, находящиеся в группе Гости, не могут оставлять комментарии к данной публикации.