вход на сайт

Имя пользователя :
Пароль :

Восстановление пароля Регистрация
Капитан из Кастильи / Captain from Castile (Генри Кинг, драма, приключения, 1961) [DVDRip, Профессиональный (двухголосый, закадровый)]
Рейтинг:
(голосов: 1)



[img]{THEME}/images/logopost.png[/img]



Капитан из Кастильи / Captain from Castile

Год выпуска: 1961
Страна: США
Производство: 20th Century Fox Film Corporation
Жанр: драма, приключения

Режиссёр: Генри Кинг
В ролях: Тайрон Пауэр, Джин Питерс, Сизар Ромеро, Ли Дж. Кобб, Джон Саттон, Антонио Морено, Томас Гомес, Алан Маубрэй, Барбара Лоуренс, Джордж Зукко

Перевод: Профессиональный (двухголосый, закадровый)
Субтитры: Отсутствуют

Описание:
Испания XVI века. Аристократ Педро Де Варгас спасает отпреследования одного из беглых рабов, чем навлекает на себя гнев Диего Де Сильва, всесильного и могущественного инквизитора. Диего расправляется со всей семьей Де Варгаса, который с помощью друзей успевает покинуть Испанию и перебраться в Новый Свет.

В Америке экспедиционный корпус Эрнандо Кортеса огнем и мечом покоряет земли ацтеков. Де Варгас становится соратником Кортеса. Вскоре сюда же из Испании приезжает Диего Де Сильва, всегда и всюду ищущий еретиков.


Дополнительно:
MediaInfo ▼Text
Общее
Полное имя :J:Капитан из КастильиKapitan iz Kastilii.avi
Формат :AVI
Размер :1.95 GiB
Продолжительность :02:20:52.240
Общий поток :1 983 Kbps

Видео
Идентификатор :0
Формат :MPEG-4 Visual
Профиль формата :Advanced [email protected]
Параметр BVOP формата :2
Параметр Qpel формата :No
Параметр GMC формата :0
Параметр Matrix формата :Default (MPEG)
Идентификатор кодека :XVID
Продолжительность :2h 20mn 52s 240ms
Битрейт :1 845 Kbps
Ширина :656 pixels
Высота :512 pixels
Соотношение сторон :1.281
Частота кадров :25.000 fps
Глубина цвета :8 bits
Подвыборка цветности :4:2:0
Цветовое пространство :YUV
Тип развертки :Progressive
Бит/(Пиксели*Кадры) :0.220
Размер потока :1.82 GiB (93%)
Библиотека кодирования :XviD0047

Аудио #1
Идентификатор :1
Формат :MPEG Audio
Идентификатор кодека :55
Продолжительность :02:20:52.200
Вид битрейта :Constant
Битрейт :128 Kbps
Канал(ы) :2 channels
Частота :48.0 KHz
Метод сжатия :Lossy
Размер потока :129 MiB (6%)



Тех. данные:
Качество:
8eb07c703ff88a9327f2bee081bee001b440cb0bКапитан из Кастильи / Captain from Castile (Генри Кинг, драма, приключения, 1961) [DVDRip, Профессиональный (двухголосый, закадровый)] Капитан из Кастильи / Captain from Castile (Генри Кинг, драма, приключения, 1961) [DVDRip, Профессиональный (двухголосый, закадровый)] " />

Аплоадер: Админ, дата: 20-02-2013, 21:55, торрент скачан: 359 раз

Понравилась раздача? Посмотрите эти:
  • Индеец-беглец / The Indian Runner (Шон Пенн, драма, 1991) [DVDRip, Професси ...
  • Рожденный дважды / Venuto al mondo (Серджо Кастеллитто, Драма, 2012) [DVDRi ...
  • Капитан Синдбад / Captain Sindbad (Байрон Хэскин, фэнтези, боевик, приключе ...
  • Язон и аргонавты / Jason and the Argonauts (Ник Уиллинг, фэнтези, приключен ...
  • Спасите тигра / Save the Tiger (Джон Г. Эвилдсен, драма, 1973) [DVDRip, Про ...
  • Вождь краснокожих и другие / O.Henrys Full House (Генри Хэтэуэй, Ховард Хоу ...
  • Процесс Жанны Д Арк / Proces de Jeanne dArc (Робер Брессон, драма, военный, ...
  • Рамона / Ramona (Генри Кинг, драма, мелодрама, 1936) [DVDRip, Профессиональ ...
  • Шарло в Испании / Les Charlots font lEspagne (Жан Жиро, комедия, 1972) [DVD ...
  • Морской волк (2 части из 2) / Der Seewolf (Кристоф Шреве, Драма, приключени ...
  • Эль Сид / El Cid (Энтони Манн, боевик, драма, мелодрама, военный, биография ...
  • Геркулес покоряет Атлантиду / Ercole alla conquista di Atlantide (Витторио ...
  • Таинственный остров / Остров приключений / Mysterious Island (Сай Эндфилд, ...
  • Тысяча и одна ночь / Чудеса Аладдина / The Wonders of Aladdin / Le meravigl ...
  • Тристана / Tristana (Луис Бунюэль, Драма, 1970) [DVDRip, Профессиональный ( ...
  • Неверные / Le infedeli (Марио Моничелли, Стено, драма, комедия, 1953) [DVDR ...
  • Нападение на почтовую станцию / Rawhide (Генри Хэтэуэй, драма, мелодрама, в ...
  • Бог знает, мистер Аллисон / Heaven Knows, Mr. Allison (Джон Хьюстон, боевик ...
  • Великий Уолдо Пеппер / The Great Waldo Pepper (Джордж Рой Хилл, драма, прик ...
  • Под покровом небес / The Sheltering Sky (Бернардо Бертолуччи, драма, мелодр ...
  • Принцесса Клевская / La princesse de Cleves (Жан Деланнуа, драма, мелодрама ...
  • Псих - Аут / Psych-Out (Ричард Раш, триллер, драма, музыка, 1968) [DVDRip, ...
  • Бравадос / The Bravados (Генри Кинг, драма, вестерн, 1958) [DVDRip, Професс ...
  • Стрелок / The Gunfighter (Генри Кинг, драма, вестерн, 1950) [DVDRip, Профес ...
  • Убей! / Kiru (Кихачи Окамото, боевик, драма, комедия, 1968) [DVDRip, Профес ...
  • Информация
    Посетители, находящиеся в группе Гости, не могут оставлять комментарии к данной публикации.