вход на сайт

Имя пользователя :
Пароль :

Восстановление пароля Регистрация
Командир / Il comandante (Паоло Хеуш, комедия, 1963) [DVDRip, Профессиональный (многоголосый, закадровый) + оригинал]
Рейтинг:
(голосов: 1)



[img]{THEME}/images/logopost.png[/img]



Командир / Il comandante

Год выпуска: 1963
Страна: Италия
Производство: Incei Film, Produzioni Cinematografiche Mediterranee (PCM)
Жанр: комедия

Режиссёр: Паоло Хеуш
В ролях: Тото, Андреина Паньяни, Бритт Экланд, Isa Crescenzi, Линда Сини, Карлотта Барилли, Альберто Де Амичис, Лучано Марин, Марио Кастеллани, Франко Фабрици

Перевод: Профессиональный (многоголосый, закадровый) + оригинал
Субтитры: Отсутствуют

Описание:
Генерал Антонио Кавалли выходит в отставку и, чтобы не стать обузой для семьи, находит себе работу в строительной фирме. Случайно он узнает, что на самом деле зарплату ему платит жена, чтобы генерал, не чувствовал себя не у дел. Тем временем, владелец фирмы Сандрелли использует доброе имя Кавалли, чтобы заключить важный контракт. Когда же Сандрелли арестовывают, генерал находит деньги, чтобы погасить долг своего начальника. Однако по дороге в банк его грабят…


Дополнительно:
MediaInfo ▼Text
Общее
Полное имя :D:Командир.1963Komandir.avi
Формат :AVI
Размер :1 021 MiB
Продолжительность :01:41:11.240
Общий поток :1 410 Kbps
Программа кодирования :VirtualDubMod 1.5.10.2 (build 2542/release)
Библиотека кодирования :VirtualDubMod build 2542/release

Видео
Идентификатор :0
Формат :MPEG-4 Visual
Параметр BVOP формата :No
Параметр Qpel формата :No
Параметр GMC формата :0
Параметр Matrix формата :Default (H.263)
Идентификатор кодека :DX50
Продолжительность :1h 41mn 11s 240ms
Битрейт :1 012 Kbps
Ширина :688 pixels
Высота :432 pixels
Соотношение сторон :1.593
Частота кадров :25.000 fps
Глубина цвета :8 bits
Подвыборка цветности :4:2:0
Цветовое пространство :YUV
Тип развертки :Progressive
Бит/(Пиксели*Кадры) :0.136
Размер потока :732 MiB (72%)
Библиотека кодирования :DivX503b1031

Аудио #1
Идентификатор :1
Формат :MPEG Audio
Идентификатор кодека :55
Продолжительность :01:41:10.439
Вид битрейта :Constant
Битрейт :192 Kbps
Канал(ы) :2 channels
Частота :44.1 KHz
Метод сжатия :Lossy
Размер потока :139 MiB (14%)
&
b593b4270b95db6f56e7f3e3876a21e2244214c9Командир / Il comandante (Паоло Хеуш, комедия, 1963) [DVDRip, Профессиональный (многоголосый, закадровый) + оригинал] Командир / Il comandante (Паоло Хеуш, комедия, 1963) [DVDRip, Профессиональный (многоголосый, закадровый) + оригинал] " />

Аплоадер: Админ, дата: 19-02-2013, 20:59, торрент скачан: 359 раз

Понравилась раздача? Посмотрите эти:
  • Привидения по-итальянски / Questi fantasmi (Ренато Кастеллани, фэнтези, ком ...
  • Пройдоха / I Tartassati (Стено, комедия, 1959) [DVDRip, Профессиональный (м ...
  • Казанова 70 / Casanova 70 (Марио Моничелли, драма, комедия, 1965) [DVDRip, ...
  • Удар головой / Coup de tete (Жан-Жак Анно, драма, комедия, спорт, 1978) [DV ...
  • Риф Донована / Donovans Reef (Джон Форд, мелодрама, комедия, 1963) [DVDRip, ...
  • Чудесное спасение белых скакунов / Miracle of the White Stallions (Артур Хи ...
  • Второй трагический Фантоцци / Il secondo tragico Fantozzi (Лучано Сальче, к ...
  • Жить, чтобы жить / Vivre Pour Vivre (Клод Лелуш, драма, 1967) [DVDRip, Проф ...
  • Хозяин и слуга (Дмитрий Кесаянц, короткометражка, комедия, 1963) [DVDRip, Н ...
  • Большой начальник (Вождь краснокожих) / Le grand chef (Анри Вернёй, комедия ...
  • Соблазненная и покинутая / Sedotta e abbandonata (Пьетро Джерми, драма, ком ...
  • Мой дядюшка / Mon oncle (Жак Тати, комедия, 1958) [DVDRip, Профессиональный ...
  • Где генерал? / Gdzie jest general… (Тадеуш Хмелевский, комедия, военный, 19 ...
  • Собачий мир / Mondo cane (Паоло Кавара, Гуалтьеро Якопетти, Франко Проспери ...
  • Франциск / Francesco (Лилиана Кавани, драма, биография, 1989) [DVDRip, Проф ...
  • Невеста на одну ночь / Moglie per una notte (Марио Камерини, комедия, 1952) ...
  • Уик-энд / Week End (Жан-Люк Годар, драма, комедия, 1967) [DVDRip, Профессио ...
  • Хад / Hud (Мартин Ритт, драма, 1963) [DVDRip, Профессиональный (многоголосы ...
  • Харакири / Seppuku (Масаки Кобаяси, драма, 1962) [DVDRip, Профессиональный ...
  • Цепная реакция / Carambolages (Марсель Блюваль, комедия, криминал, 1963) [D ...
  • Информация
    Посетители, находящиеся в группе Гости, не могут оставлять комментарии к данной публикации.