вход на сайт

Имя пользователя :
Пароль :

Восстановление пароля Регистрация
Яд в стакане / Illatos ut a semmibe (Йожеф Магияр, комедия, 1974) [TVRip, Профессиональный (полное дублирование) Советский дубляж + оригинал]
Рейтинг:
(голосов: 1)



[img]{THEME}/images/logopost.png[/img]



Яд в стакане / Illatos ut a semmibe

Год выпуска: 1974
Страна: Венгрия
Производство: Hunnia Filmstudio
Жанр: комедия

Режиссёр: Йожеф Магияр
В ролях: Дьёрдь Барди, Ференц Каллаи, Имре Шинкович, Имре Понграц, Цецилия Эстергайош, Gyorgyi Andai, Ласло Банхиди, Ibolya Peva, Андраш Амбруш, Ференц Зенте

Перевод: Профессиональный (полное дублирование) Советский дубляж + оригинал
Субтитры: Отсутствуют

Описание:
Верхушка кооператива узнает, что к ним по письму одного из обиженных, едет с проверкой ревизор. Один из них, по его приезду, дал ему папку, в которой по недосмотру оказались важные бумаги не для посторонних глаз. Они стараются убрать один другого, безуспешно. А потом в одном из 12-ти стаканов разводят яд…


Дополнительно:
MediaInfo ▼Text
Общее
Полное имя :K:Яд в стаканеЯд в стаканеJad.v.stakane.1974.avi
Формат :AVI
Размер :1.44 GiB
Продолжительность :01:29:08.720
Общий поток :2 317 Kbps
Программа кодирования :VirtualDubModRus 1.5.10.2 (build 2542/release)
Библиотека кодирования :VirtualDub build 32507/release

Видео
Идентификатор :0
Формат :MPEG-4 Visual
Профиль формата :Advanced [email protected]
Параметр BVOP формата :2
Параметр Qpel формата :No
Параметр GMC формата :0
Параметр Matrix формата :Default (MPEG)
Идентификатор кодека :XVID
Продолжительность :1h 29mn 8s 720ms
Битрейт :2 180 Kbps
Ширина :704 pixels
Высота :512 pixels
Соотношение сторон :1.375
Частота кадров :25.000 fps
Глубина цвета :8 bits
Подвыборка цветности :4:2:0
Цветовое пространство :YUV
Тип развертки :Progressive
Бит/(Пиксели*Кадры) :0.242
Размер потока :1.36 GiB (94%)
Библиотека кодирования :XviD0064

Аудио #1
Идентификатор :1
Формат :MPEG Audio
Идентификатор кодека :55
Продолжительность :01:28:57.648
Вид битрейта :Constant
Битрейт :128 Kbps
Канал(ы) :2 channels
Частота :48.0 KHz
Метод сжатия :Lossy
Размер потока :81.4 MiB (6%)



Тех. данные:
Качество:TVRip
Продолжитель
069f2dcab565270f8ae72bbaf0796facd80d026dЯд в стакане / Illatos ut a semmibe (Йожеф Магияр, комедия, 1974) [TVRip, Профессиональный (полное дублирование) Советский дубляж + оригинал] Яд в стакане / Illatos ut a semmibe (Йожеф Магияр, комедия, 1974) [TVRip, Профессиональный (полное дублирование) Советский дубляж + оригинал] " />

Аплоадер: Админ, дата: 27-02-2013, 22:04, торрент скачан: 359 раз

Понравилась раздача? Посмотрите эти:
  • Я боюсь / Io ho paura (Дамиано Дамиани, триллер, драма, криминал, 1977) [DV ...
  • Тутси / Tootsie (Сидни Поллак, Драма, мелодрама, комедия, 1982) [DVDRip, Пр ...
  • Геркус Мантас (2 части из 2) (Марионас Гедрис, драма, 1972) [SATRip, Профес ...
  • Люди и манекены (4 части из 4) (Виктор Храмов, Аркадий Райкин, комедия, 197 ...
  • Берега (7 частей из 7) (Гизо Габескирия, Гига Лордкипанидзе, боевик, драма, ...
  • Диверсанты / The Demolition Squad (Хайрудин Крвавац, военный, 1967) [DVDRip ...
  • Иван да Марья (Борис Рыцарев, фэнтези, мелодрама, комедия, семейный, музыка ...
  • Чудовище / LAnimal (Клод Зиди, комедия, 1977) [DVDRip, Профессиональный (по ...
  • Трое на снегу / Drei Manner im Schnee (Альфред Форер, комедия, 1974) [DVDRi ...
  • Пропавшая грамота (Борис Ивченко, фэнтези, комедия, 1972) [DVDRip, Професси ...
  • Бабочка (Нелли Ненова, Гено Цулая, короткометражка, мелодрама, 1977) [TVRip ...
  • Термометр (Рамаз Шарабидзе, короткометражка, 1976) [TVRip, Профессиональный ...
  • Лимонный торт (Амиран Дарсавелидзе, Реваз Габриадзе, короткометражка, комед ...
  • Удача (Баадур Цуладзе, короткометражка, комедия, 1980) [TVRip, Профессионал ...
  • Три жениха / Sami sasizo (Резо Чархалашвили, короткометражка, комедия, 1978 ...
  • Пари (Рамаз Шарабидзе, короткометражка, комедия, 1974) [TVRip, Профессионал ...
  • Три рубля / Sami maneti (Рамаз Шарабидзе, короткометражка, комедия, 1976) [ ...
  • Трое мужчин и младенец в люльке / 3 hommes et un couffin (Колин Серро, Коме ...
  • Прощайте, фараоны! (Давид Черкасский, Вячеслав Винник, комедия, 1974) [DVDR ...
  • Приключения маленького Мука (Елизавета Кимягарова, мюзикл, семейный, 1983) ...
  • Ужицкая республика / Uzicka Republika (Жика Митрович, драма, военный, 1974) ...
  • Языческая мадонна / A pogany madonna (Дьюла Месарош, комедия, криминал, 198 ...
  • Огни рампы / Limelight (Чарльз Чаплин, драма, мелодрама, комедия, музыка, 1 ...
  • Здравствуйте, я ваша тетя! (Виктор Титов, комедия, 1974) [DVDRip, Не требуе ...
  • Медведи и я / The Bears and I (Бернард МакЭвети, драма, семейный, 1974) [DV ...
  • Информация
    Посетители, находящиеся в группе Гости, не могут оставлять комментарии к данной публикации.