вход на сайт

Имя пользователя :
Пароль :

Восстановление пароля Регистрация
Диверсанты / The Demolition Squad (Хайрудин Крвавац, военный, 1967) [DVDRip, Профессиональный (полное дублирование) Советский дубляж]
Рейтинг:
(голосов: 1)



[img]{THEME}/images/logopost.png[/img]



Диверсанты / The Demolition Squad

Год выпуска: 1967
Страна: Югославия
Производство: Bosna Film
Жанр: военный

Режиссёр: Хайрудин Крвавац
В ролях: Раде Маркович, Велимир «Бата» Живоинович, Йован-Бурдуш Йаничиевич, Любиша Самарджич, Хусейн Чокич, Здравко Биоградлия, Растислав Йович, Заим Музаферия, Anka Zupanc, Янез Врховец

Перевод: Профессиональный (полное дублирование) Советский дубляж
Субтитры: Отсутствуют

Описание:
Вторая мировая война. Остросюжетная повесть о народных героях, уничтоживших немецкие самолеты.


Дополнительно:
MediaInfo ▼Text
Общее
Полное имя :K:ДиверсантыDiversanty.1967.avi
Формат :AVI
Размер :900 MiB
Продолжительность :01:14:16.680
Общий поток :1 693 Kbps
Программа кодирования :VirtualDubMod 1.5.10.3 | www.virtualdub-fr.org || (build 2550/release)
Библиотека кодирования :VirtualDubMod build 2550/release

Видео
Идентификатор :0
Формат :MPEG-4 Visual
Профиль формата :Advanced [email protected]
Параметр BVOP формата :1
Параметр Qpel формата :No
Параметр GMC формата :0
Параметр Matrix формата :Default (MPEG)
Идентификатор кодека :XVID
Продолжительность :1h 14mn 16s 680ms
Битрейт :1 556 Kbps
Ширина :688 pixels
Высота :480 pixels
Соотношение сторон :1.433
Частота кадров :25.000 fps
Глубина цвета :8 bits
Подвыборка цветности :4:2:0
Цветовое пространство :YUV
Тип развертки :Progressive
Бит/(Пиксели*Кадры) :0.188
Размер потока :826 MiB (92%)
Библиотека кодирования :XviD0050

Аудио #1
Идентификатор :1
Формат :AC-3
Формат/Информация :Audio Coding 3
Идентификатор кодека :2000
Продолжительность :01:14:16.640
Вид битрейта :Constant
Битрейт :128 Kbps
Канал(ы) :2 channels
Расположение каналов :Front: L R
Частота :48.0 KHz
Битовая глубина :16 bits
Метод сжатия :Lossy
Размер потока :68.0 MiB (8%)



Тех. данные:
Качество:DVDRip
Пр
f37c36a2db753f950cab275f52e1c7222927ba72Диверсанты / The Demolition Squad (Хайрудин Крвавац, военный, 1967) [DVDRip, Профессиональный (полное дублирование) Советский дубляж] Диверсанты / The Demolition Squad (Хайрудин Крвавац, военный, 1967) [DVDRip, Профессиональный (полное дублирование) Советский дубляж] " />

Аплоадер: Админ, дата: 1-03-2013, 21:23, торрент скачан: 359 раз

Понравилась раздача? Посмотрите эти:
  • Официальная версия / La historia oficial (Луис Пуэнсо, драма, военный, исто ...
  • Тутси / Tootsie (Сидни Поллак, Драма, мелодрама, комедия, 1982) [DVDRip, Пр ...
  • Крепкий орешек (Теодор Вульфович, комедия, военный, 1967) [DVDRip, Не требу ...
  • Берега (7 частей из 7) (Гизо Габескирия, Гига Лордкипанидзе, боевик, драма, ...
  • Украденный поезд (Владимир Янчев, драма, 1971) [DVDRip, Профессиональный (п ...
  • Путь в "Сатурн" (Виллен Азаров, военный, 1967) [DVDRip, Не требуется]
  • Конец "Сатурна" (Виллен Азаров, Мосфильм, 1967) [DVDRip, Не требуется]
  • Яд в стакане / Illatos ut a semmibe (Йожеф Магияр, комедия, 1974) [TVRip, П ...
  • Комиссар (Александр Аскольдов, драма, военный, 1967) [DVDRip, Не требуется] ...
  • Сержант Калень / Ogniomistrz Kalen (Эва Петельска, Чеслав Петельский, драма ...
  • Процесс Жанны Д Арк / Proces de Jeanne dArc (Робер Брессон, драма, военный, ...
  • Партизанская эскадрилья / Partizanska eskadrila (Хайрудин Крвавац, драма, в ...
  • Трое мужчин и младенец в люльке / 3 hommes et un couffin (Колин Серро, Коме ...
  • Слуги дьявола на Чёртовой мельнице (Александр Лейманис, комедия, приключени ...
  • Слуги Дьявола (Александр Лейманис, комедия, приключения, 1970) [DVDRip, Про ...
  • Жить, чтобы жить / Vivre Pour Vivre (Клод Лелуш, драма, 1967) [DVDRip, Проф ...
  • Пассажирка / Pasazerka (Анджей Мунк, Витольд Лесевич, драма, военный, истор ...
  • Где генерал? / Gdzie jest general… (Тадеуш Хмелевский, комедия, военный, 19 ...
  • Уик-энд / Week End (Жан-Люк Годар, драма, комедия, 1967) [DVDRip, Профессио ...
  • Женя, Женечка и «Катюша» (Владимир Мотыль, мелодрама, комедия, военный, 196 ...
  • Информация
    Посетители, находящиеся в группе Гости, не могут оставлять комментарии к данной публикации.