вход на сайт

Имя пользователя :
Пароль :

Восстановление пароля Регистрация
Гнев Ахилла / Lira di Achille (Марино Гиролами, боевик, драма, мелодрама, военный, 1962) [DVDRip, Профессиональный (многоголосый, закадровый) ТК "5 канал" + оригинал]
Рейтинг:
(голосов: 1)



[img]{THEME}/images/logopost.png[/img]



Гнев Ахилла / Lira di Achille

Год выпуска: 1962
Страна: Италия
Производство: Uneurop Film
Жанр: боевик, драма, мелодрама, военный

Режиссёр: Марино Гиролами
В ролях: Гордон Митчелл, Жак Бержерак, Кристина Гайони, Глория Милланд, Пьеро Лулли, Роберто Риссо, Марио Петри, Элеонора Бьянчи, Эрминио Спалла, Фоско Джакетти

Перевод: Профессиональный (многоголосый, закадровый) ТК "5 канал" + оригинал
Субтитры: Отсутствуют

Описание:
После разногласий с Аганемноном, Ахиллес прекращает воевать с Троей. Его друг Патрокл бросает вызов Гектору и погибает. Тогда Ахиллес решает отомстить... Фильм основан на классическом греческом мифе о герое Троянской войны Ахилле.


Дополнительно:
MediaInfo ▼Text
Общее
Полное имя :D:Гнев АхиллаAhillesova pyata.1962.avi
Формат :AVI
Размер :1.46 GiB
Продолжительность :01:51:08.680
Общий поток :1 878 Kbps

Видео
Идентификатор :0
Формат :MPEG-4 Visual
Профиль формата :Advanced [email protected]
Параметр BVOP формата :1
Параметр Qpel формата :No
Параметр GMC формата :0
Параметр Matrix формата :Custom
Идентификатор кодека :XVID
Продолжительность :1h 51mn 8s 680ms
Битрейт :1 448 Kbps
Ширина :720 pixels
Высота :304 pixels
Соотношение сторон :2.368
Частота кадров :25.000 fps
Глубина цвета :8 bits
Подвыборка цветности :4:2:0
Цветовое пространство :YUV
Тип развертки :Progressive
Бит/(Пиксели*Кадры) :0.265
Размер потока :1.12 GiB (77%)
Библиотека кодирования :XviD0050

Аудио #1
Идентификатор :1
Формат :AC-3
Формат/Информация :Audio Coding 3
Идентификатор кодека :2000
Продолжительность :01:51:07.648
Вид битрейта :Constant
Битрейт :192 Kbps
Канал(ы) :2 channels
Расположение каналов :Front: L R
Частота :48.0 KHz
Битовая глубина :16 bits
Метод сжатия :Lossy
Размер потока :153 MiB (10%)
Язык : / /

Аудио #2
e73e4cd6cc7b1a5d631cbe5b56833b205271bed5Гнев Ахилла / Lira di Achille (Марино Гиролами, боевик, драма, мелодрама, военный, 1962) [DVDRip, Профессиональный (многоголосый, закадровый) ТК "5 канал" + оригинал] Гнев Ахилла / Lira di Achille (Марино Гиролами, боевик, драма, мелодрама, военный, 1962) [DVDRip, Профессиональный (многоголосый, закадровый) ТК "5 канал" + оригинал] " />

Аплоадер: Админ, дата: 12-03-2013, 20:47, торрент скачан: 359 раз

Понравилась раздача? Посмотрите эти:
  • Воздыхатель / Le soupirant (Пьер Этекс, комедия, 1962) [DVDRip, Профессиона ...
  • Последний раз, когда я видел Париж / The Last Time I Saw Paris (Ричард Брук ...
  • Эта земля моя / This Land Is Mine (Жан Ренуар, драма, военный, 1943) [DVDRi ...
  • Иваново детство (Андрей Тарковский, драма, военный, 1962) [DVDRip, Не требу ...
  • Орел Шарпа / Sharpes Eagle (Том Клегг, боевик, приключения, военный, истори ...
  • Королевский моряк / Single-Handed (Рой Боултинг, боевик, драма, военный, 19 ...
  • Процесс Жанны Д Арк / Proces de Jeanne dArc (Робер Брессон, драма, военный, ...
  • Экспресс Фон Райена / Von Ryans Express (Марк Робсон, боевик, приключения, ...
  • С террасы / From the Terrace (Марк Робсон, драма, мелодрама, 1960) [DVDRip, ...
  • Я, бабушка, Илико и Илларион (Тенгиз Абуладзе, мелодрама, комедия, 1962) [D ...
  • Эль Сид / El Cid (Энтони Манн, боевик, драма, мелодрама, военный, биография ...
  • Рапа Нуи: Потерянный рай / Rapa Nui (Кевин Рейнольдс, боевик, драма, мелодр ...
  • Преждевременное погребение / Premature Burial (Роджер Корман, ужасы, драма, ...
  • Потопить "Бисмарк" / Sink the Bismarck (Льюис Гилберт, боевик, драма, военн ...
  • Ад для героев / Hell Is for Heroes (Дон Сигел, боевик, драма, военный, 1962 ...
  • Лето с Моникой / Sommaren med Monika (Ингмар Бергман, драма, мелодрама, 195 ...
  • Мы поедем в Дювиль / Nous irons a Deauville (Френсис Риго, комедия, 1962) [ ...
  • Бог знает, мистер Аллисон / Heaven Knows, Mr. Allison (Джон Хьюстон, боевик ...
  • Мост Ватерлоо / Waterloo Bridge (Мервин ЛеРой, драма, мелодрама, военный, 1 ...
  • Вдова Кудер / La veuve Couderc (Пьер Гранье-Дефер, боевик, драма, мелодрама ...
  • Пески Иво Джимы / Sands of Iwo Jima (Аллан Дуон, боевик, драма, мелодрама, ...
  • Уик-энд / Week End (Жан-Люк Годар, драма, комедия, 1967) [DVDRip, Профессио ...
  • Харакири / Seppuku (Масаки Кобаяси, драма, 1962) [DVDRip, Профессиональный ...
  • Четыре дня Неаполя / Le quattro giornate di Napoli (Нанни Лой, драма, военн ...
  • Грозовой перевал / Wuthering Heights (2 части из 2) (Коки Гидройк, Драма, м ...
  • Информация
    Посетители, находящиеся в группе Гости, не могут оставлять комментарии к данной публикации.