вход на сайт

Имя пользователя :
Пароль :

Восстановление пароля Регистрация
Игра смерти / Game of death (Роберт Клауз, Саммо Хунг Кам-Бо, Брюс Ли, боевик, триллер, драма, криминал, 1978) [BDRip, Профессиональный (двухголосый закадровый) + Авторский (одноголосый закадровый)]
Рейтинг:
(голосов: 1)



[img]{THEME}/images/logopost.png[/img]



Игра смерти / Game of death
«Bruce Lee challenges the underworld to a Game of Death.»
Год выпуска: 1978
Страна: Гонконг, США
Производство:Concord Productions Inc, Golden Harvest Company Ltd
Жанр: боевик, триллер, драма, криминал
Режиссёр:Роберт Клауз, Саммо Хунг Кам-Бо, Брюс Ли
В ролях:Брюс Ли, Коллин Кэмп, Дин Джэггер, Гиг Янг, Таи Чунг Ким, Юэнь Бяо, Роберт Уолл, Карим Абдул-Джаббар, Мел Новак, Хью О’Брайан
Перевод: Профессиональный (двухголосый закадровый) SUPERBIT + Авторский одноголосый (Королёв)
Субтитры: Нет
ОписаниеПреступный синдикат зловещего доктора Лэнда контролирует гонконгский шоу-бизнес: все артисты обязаны отчислять мафии немалые суммы со всех своих доходов. Молодой актер Билли Ло вступает в борьбу с преступным синдикатом....



Качество: BDRip
Продолжительность: 01:40:19
Формат: AVI
Видео кодек: XviD
Аудио кодек:МР3
Видео:688x288 (2.39:1), 23.976 fps, XviD build 50 ~772 kbps avg, 0.16 bit/pixel
Аудио 1: 48 kHz, MPEG Layer 3, 2 ch, ~128.00 kbps avg - ДВО
Аудио 1: 48 kHz, MPEG Layer 3, 2 ch, ~128.00 kbps avg - АВО


"MediaInfo:" ▼TextGeneral
Complete name : D:Мои раздачи ФильмыИгра смерти 745igra_smerti_745.avi
Format : AVI
Format/Info : Audio Video Interleave
File size : 748 MiB
Duration : 1h 40mn
Overall bit rate : 1 043 Kbps
Writing application : VirtualDubMod 1.5.10.2 (build 2540/release)
Writing library : VirtualDubMod build 2540/release
Video
Format : MPEG-4 Visual
Format profile : Streaming [email protected]
Format settings, BVOP : Yes
Format settings, QPel : No
Format settings, GMC : No warppoints
Format settings, Matrix : Custom
Codec ID : XVID
Codec ID/Hint : XviD
Duration : 1h 40mn
Bit rate : 773 Kbps
Width : 688 pixels
Height : 288 pixels
Display aspect ratio : 2.35
Frame rate : 23.976 fps
Resolution : 24 bits
Colorimetry : 4:2:0
Scan type : Progressive
Bits/(Pixel*Frame) : 0.163
Stream size : 555 MiB (74%)
Writing library : XviD 50
Audio
Format : MPEG Audio
Format version : Version 1
Format profile : Layer 3
Codec ID : 55
Codec ID/Hint : MP3
Duration : 1h 40mn
Bit rate mode : Constant
Bit rate : 128 Kbps
Minimum bit rate : 128 Kbps
Channel(s) : 2 channels
Sampling rate : 48.0 KHz
Resolution : 16 bits
Stream size : 91.8 MiB (12%)
Alignment : Aligned on interleaves
Interleave, duration : 42 ms (1.00 video frame)
Interleave, preload duration : 504 ms
Writing library : LAME3.98r
Encoding settings : CBR
Audio
Format : MPEG Audio
Format version : Version 1
Format profile : Layer 3
Codec ID : 55
Codec ID/Hint : MP3
Duration : 1h 40mn
Bit rate mode : Constant
Bit rate : 128 Kbps
Minimum bit rate : 128 Kbps
Channel(s) : 2 channels
Sampling rate : 48.0 KHz
Resolution : 16 bits
Stream size : 91.8 MiB (12%)
Alignment : Aligned on interleaves
Interleave, duration : 42 ms (1.00 video frame)
Interleave, preload duration : 504 ms
Writing library : LAME3.98r
Encoding settings : CBR



Стол заказов POWER | Отзывы | Вступление в POWER


cf7f74d06c1ea08ba837ef36c6252faccf44652aИгра смерти / Game of death (Роберт Клауз, Саммо Хунг Кам-Бо, Брюс Ли, боевик, триллер, драма, криминал, 1978) [BDRip, Профессиональный (двухголосый закадровый) + Авторский (одноголосый закадровый)] Игра смерти / Game of death (Роберт Клауз, Саммо Хунг Кам-Бо, Брюс Ли, боевик, триллер, драма, криминал, 1978) [BDRip, Профессиональный (двухголосый закадровый) + Авторский (одноголосый закадровый)] " />

Аплоадер: Админ, дата: 30-03-2013, 01:00, торрент скачан: 359 раз

Понравилась раздача? Посмотрите эти:
  • Смертный приговор / Death Sentence (Джеймс Ван, боевик, триллер, драма, кри ...
  • Погнали! / Getaway (Кортни Соломон, Боевик,Криминал, 2013) [HDRip, Професси ...
  • Хладнокровная / Cold Blooded (Джейсон Лапейр, Триллер, криминал, 2012) [WEB ...
  • Игра смерти / Game of Death (Роберт Клауз, Саммо Хунг Кам-Бо, Брюс Ли, боев ...
  • Альбатрос / Albatross (Найал МакКормик, Драма, 2011) [DVDRip, Профессиональ ...
  • Берлинское дело / The Berlin File (Рю Сын Ван, Боевик, триллер, драма, 2013 ...
  • Драконы навсегда / Fei lung mang jeung (Саммо Хунг Кам-Бо, Кори Юэнь, Боеви ...
  • Цель Номер Один / Zero Dark Thirty (Кэтрин Бигелоу, боевик, триллер, драма, ...
  • Путь дракона / Meng long guo jiang (Брюс Ли, Боевик, Триллер, Комедия, Драм ...
  • Лучший стрелок / Top Gun (Тони Скотт, боевик, драма, мелодрама, 1986) [BDRi ...
  • Псы войны / The Dogs of War (Джон Ирвин, боевик, драма, приключения, военны ...
  • Игра смерти / Game of Death (Брюс Ли) [1978 г., DVDRip]
  • Новые парни турбо / New Kids Turbo (Штефен Хаарс, Боевик, комедия, 2010) [H ...
  • Победители и грешники / Qi mou miao ji: Wu fu xing (Саммо Хунг Кам-Бо, Коме ...
  • Искусство Шаолиня - змея и журавль / She hao ba bu (Чи-Хва Чен, боевик, дра ...
  • Игра смерти / Game of death Роберт Клауз, Саммо Хунг Кам-Бо, Брюс Ли, боеви ...
  • Игра смерти / Game of Death / Si wang you xi(Саммо Хунг Кам-Бо, драма, крим ...
  • Чемпионат Европы 2012 / Группа D / 1-й тур / Украина - Швеция / Спорт 1 [11 ...
  • Следопыт / Tracker (Йен Шарп, боевик, драма, приключения, 2010) [HDRip, Про ...
  • Выход дракона / Enter the Dragon ( Роберт Клауз / Robert Clouse, боевые иск ...
  • Попутчик / The Hitcher (Роберт Хармон, боевик, триллер, криминал, 1986) [DV ...
  • Глушь / Resurrection County (Matt Zettell, ужасы, триллер, 2008) [DVDRip, П ...
  • Башня смерти / Tower of Death / Si wang ta ( Нг Сиюэнь, Саммо Хунг Кам-Бо, ...
  • Ничего, кроме правды / Nothing But the Truth (Род Лури, триллер, драма, 200 ...
  • Крузо / Crusoe (Калеб Дешанель, Драма, 1988) [HDTVRip, Профессиональный (дв ...
  • Информация
    Посетители, находящиеся в группе Гости, не могут оставлять комментарии к данной публикации.