вход на сайт

Имя пользователя :
Пароль :

Восстановление пароля Регистрация
Свидетель обвинения / Witness for the Prosecution (Билли Уайлдер, драма, детектив, 1957) [DVDRip, Профессиональный (многоголосый, закадровый) + Любительский (одноголосый, закадровый) + оригинал, Субтитры: Rus]
Рейтинг:
(голосов: 1)



[img]{THEME}/images/logopost.png[/img]





Свидетель обвинения / Witness for the Prosecution

Год выпуска: 1957
Страна: США
Производство: Edward Small Productions
Жанр: драма, детектив

Режиссёр: Билли Уайлдер
В ролях: Тайрон Пауэр, Марлен Дитрих, Чарльз Лотон, Эльза Ланчестер, Джон Уильямс, Генри Дэниелл, Йен Вульф, Торин Тэтчер, Норма Варден, Уна О’Коннор

Перевод: Профессиональный (многоголосый, закадровый) + Любительский (одноголосый, закадровый) + оригинал
Субтитры: Русские (отдельно)

Описание:
Сэру Уилфриду Робэртсу, престарелому адвокату, бережно опекаемому медсестрой мисс Плимсолл, поступает предложение защищать интересы Леонарда Стивена Воула, которому инкриминируется убийство. В невиновности подопечного его убеждает искренность чувств красивой женщины — Кристин Воул, в девичестве Хелм, и многоопытный юрист берётся за дело.


Дополнительно:
MediaInfo ▼Text
Общее
Полное имя :L:Свидетель обвиненияСвидетель обвиненияSvidetel obvineniya.avi
Формат :AVI
Размер :1.46 GiB
Продолжительность :01:56:15.936
Общий поток :1 792 Kbps
Программа кодирования :VirtualDubMod 1.5.10.2 (build 2540/release)
Библиотека кодирования :VirtualDubMod build 2540/release

Видео
Идентификатор :0
Формат :MPEG-4 Visual
Параметр BVOP формата :1
Параметр Qpel формата :No
Параметр GMC формата :0
Параметр Matrix формата :Default (MPEG)
Идентификатор кодека :DX50
Продолжительность :1h 56mn 15s 927ms
Битрейт :1 486 Kbps
Ширина :672 pixels
Высота :400 pixels
Соотношение сторон :1.680
Частота кадров :23.976 fps
Глубина цвета :8 bits
Подвыборка цветности :4:2:0
Цветовое пространство :YUV
Тип развертки :Progressive
Бит/(Пиксели*Кадры) :0.231
Размер потока :1.21 GiB (83%)
Библиотека кодирования :DivX503b2676p

Аудио #1
Идентификатор :1
Формат :MPEG Audio
Идентификатор кодека :55
Продолжительность :01:56:15.936
Вид битрейта :Constant
Битрейт :96.0 Kbps
Канал(ы) :1 channel
Частота :48.0 KHz
Метод сжатия :Lossy
Размер потока :79.8 MiB (5%)

Аудио #2
Идентификатор &
b922c006ed6d68d2d77443172001fa60c8eeecd5Свидетель обвинения / Witness for the Prosecution (Билли Уайлдер, драма, детектив, 1957) [DVDRip, Профессиональный (многоголосый, закадровый) + Любительский (одноголосый, закадровый) + оригинал, Субтитры: Rus] Свидетель обвинения / Witness for the Prosecution (Билли Уайлдер, драма, детектив, 1957) [DVDRip, Профессиональный (многоголосый, закадровый) + Любительский (одноголосый, закадровый) + оригинал, Субтитры: Rus] " />

Аплоадер: Админ, дата: 3-04-2013, 20:24, торрент скачан: 359 раз

Понравилась раздача? Посмотрите эти:
  • Сигнальщик / The Signalman (Лоуренс Гордон Кларк, короткометражка, ужасы, ...
  • Пленники болот / Lure of the Wilderness (Жан Негулеско, драма, мелодрама, п ...
  • Отдел исполнения наказаний / La polizia ringrazia (Стено, драма, криминал, ...
  • Поездка в Америку / Coming to America (Джон Лэндис, драма, мелодрама, комед ...
  • Одинокая женщина / Kobieta samotna (Агнешка Холланд, драма, 1981) [DVDRip, ...
  • Голая правда / The naked truth (Марио Зампи, комедия, 1957) [DVDRip, Профес ...
  • Азарт удачи / The Fortune Cookie (Билли Уайлдер, мелодрама, комедия, 1966) ...
  • Партизанская эскадрилья / Partizanska eskadrila (Хайрудин Крвавац, драма, в ...
  • След кота (Уильям А. Уэллмен, драма, вестерн, 1954) [DVDRip, Любительский ( ...
  • Преждевременное погребение / Premature Burial (Роджер Корман, ужасы, драма, ...
  • Свидетель обвинения / Witness for the Prosecution (Билли Уайлдер, триллер, ...
  • Пэйтон Плейс / Peyton Place (Марк Робсон, драма, мелодрама, 1957) [DVDRip, ...
  • Жить, чтобы жить / Vivre Pour Vivre (Клод Лелуш, драма, 1967) [DVDRip, Проф ...
  • Любовь после полудня / Love in the afternoon (Билли Уайлдер, комедия, драма ...
  • Зелиг / Zelig (Вуди Аллен, фэнтези, комедия, 1983) [DVDRip, Авторский (одно ...
  • Бог знает, мистер Аллисон / Heaven Knows, Mr. Allison (Джон Хьюстон, боевик ...
  • Потерянный уик-энд / The Lost weekend (Билли Уайлдер , драма, фильм-нуар, 1 ...
  • Отвратительные, грязные, злые / Brutti, sporchi e cattivi (Этторе Скола, др ...
  • Розенкранц и Гильденштерн мертвы / Rosencrantz & Guildenstern Are Dead (Том ...
  • Урок любви / En lektion i karlek (Ингмар Бергман, драма, комедия, 1954) [DV ...
  • Ростовщик / The Pawnbroker (Сидни Люмет, драма, 1964) [DVDRip, Любительский ...
  • Дикие дни / A Fei jingjyuhn (Вонг Кар-Вай, драма, мелодрама, криминал, 1990 ...
  • Как раздражать людей / How to Irritate People (Йен Фордайсе, комедия, 1969) ...
  • Харакири / Seppuku (Масаки Кобаяси, драма, 1962) [DVDRip, Профессиональный ...
  • Медведи и я / The Bears and I (Бернард МакЭвети, драма, семейный, 1974) [DV ...
  • Информация
    Посетители, находящиеся в группе Гости, не могут оставлять комментарии к данной публикации.