вход на сайт

Имя пользователя :
Пароль :

Восстановление пароля Регистрация
Железный крест / Cross of Iron (Сэм Пекинпа, Боевик, драма, военный, 1977) [BDRip, Профессиональный (многоголосый, закадровый), Sub]
Рейтинг:
(голосов: 1)



[img]{THEME}/images/logopost.png[/img]



Железный крест / Cross of Iron
«Men on the front lines of Hell.»


Год выпуска: 1977
Страна: США
Производство: Studio Canal, Calibra Pictures
Жанр: Боевик, драма, военный

Режиссёр: Сэм Пекинпа
В ролях: Джеймс Коберн, Максимилиан Шелл, Джеймс Мейсон, Дэвид Уорнер, Клаус Лёвич, Вадим Гловна, Рогер Фриц, Дитер Шидор, Буркхард Дрист, Фред Штилькраут ...



Перевод: Профессиональный (многоголосый, закадровый) [Первый канал]
Субтитры: Русские (отдельно)

Описание: 1943 год. Немецкая армия с тяжелыми боями отступает на Восточном фронте. На замену убитому командиру батальона прибывает переведенный из Франции капитан Странский. Этот элегантный прусский аристократ еще не бывал в настоящем сражении и мечтает любой ценой получить германский боевой орден — «Железный крест».

Чтобы достичь своей цели, Странскому нужно завоевать уважение командира взвода капрала Штайнера, закаленного в боях ветерана, пользующегося огромным авторитетом среди товарищей по оружию. А «универсальный солдат» Штайнер презирает офицеров, жаждущих славы, но предпочитающих не соваться на передовую…



Релиз от:

Качество: BDRip | исх. Железный крест / Cross of Iron (1977) Blu-Ray Remux
Продолжительность: 02:12:41 час.

Формат: AVI
Видео кодек: Xvid
Аудио кодек: AC3
Видео: 656x352 (1.864), 24.000 fps, Xvid ~705 kbps avg, 0.126 bit/pixel
Аудио: 48 kHz, AC3, 2 ch, 96 kbps avg

Дата премьеры (мир): 28 января 1977

"MediaInfo" ▼General
Complete name : D:Zheleznyj.krest.1977.BDRip.XviD.mp3.763mb.YTN.avi
Format : AVI
Format/Info : Audio Video Interleave
File size : 763 MiB
Duration : 2h 12mn
Overall bit rate : 804 Kbps
Writing application : VirtualDubMod 1.5.10.3 | www.virtualdub-fr.org || (build 2550/release)
Writing library : VirtualDubMod build 2550/release

Video
ID : 0
Format : MPEG-4 Visual
Format profile : Advanced [email protected]
Format settings, BVOP : 1
Format settings, QPel : No
Format settings, GMC : No warppoints
Format settings, Matrix : Custom
Codec ID : XVID
Codec ID/Hint : XviD
Duration : 2h 12mn
Bit rate : 705 Kbps
Width : 656 pixels
Height : 352 pixels
Display aspect ratio : 1.864
Frame rate : 24.000 fps
Color space : YUV
Chroma subsampling : 4:2:0
Bit depth : 8 bits
Scan type : Progressive
Compression mode : Lossy
Bits/(Pixel*Frame) : 0.126
Stream size : 664 MiB (87%)
Writing library : XviD 65

Audio
ID : 1
Format : MPEG Audio
Format version : Version 1
Format profile : Layer 3
Mode : Joint stereo
Mode extension : MS Stereo
Codec ID : 55
Codec ID/Hint : MP3
Duration : 2h 12mn
Bit rate mode : Constant
Bit rate : 96.0 Kbps
Channel(s) : 2 channels
Sampling rate : 44.1 KHz
Compression mode : Lossy
Stream size : 91.0 MiB (12%)
Alignment : Aligned on interleaves
Interleave, duration : 42 ms (1.00 video frame)
Interleave, preload duration : 522 ms





438713df204cbf6a199e5b281732f046f760d01dЖелезный крест / Cross of Iron (Сэм Пекинпа, Боевик, драма, военный, 1977) [BDRip, Профессиональный (многоголосый, закадровый), Sub] Железный крест / Cross of Iron (Сэм Пекинпа, Боевик, драма, военный, 1977) [BDRip, Профессиональный (многоголосый, закадровый), Sub] " />

Аплоадер: Админ, дата: 28-04-2013, 23:50, торрент скачан: 359 раз

Понравилась раздача? Посмотрите эти:
  • Элита убийц / The Killer Elite (Сэм Пекинпа, Боевик, Криминал, 1975) [BDRip ...
  • Погнали! / Getaway (Кортни Соломон, Боевик,Криминал, 2013) [HDRip, Професси ...
  • Железный человек и Халк: Союз героев / Iron Man & Hulk: Heroes United (Лео ...
  • Железный человек 2 / Iron Man 2 (Джон Фавро, Фантастика, боевик, приключени ...
  • Посылка / The Package (Джесси Джонсон, боевик, 2013) [HDRip, Профессиональн ...
  • Железный крест / Cross of Iron(режиссёр, Боевик, драма, военный, 1977) [BDR ...
  • 42 / 42 (Брайан Хелгеленд, драма, биография, спорт, 2013) [BDRip, Профессио ...
  • 12 раундов: Перезагрузка / 12 Rounds: Reloaded (Роэль Рейн, Боевик, 2013) [ ...
  • Берлинское дело / The Berlin File (Рю Сын Ван, Боевик, триллер, драма, 2013 ...
  • Чудный мальчик / Boy Wonder (Майкл Мориссей, Боевик, Триллер, Драма, Кримин ...
  • Железный крест / Cross of Iron (Сэм Пекинпа, Боевик, драма, военный, 1977) ...
  • МЫ. Верим в любовь / W.E. (Мадонна, Драма, мелодрама, история, 2011) [BDRip ...
  • Железный Кулак / The Man with the Iron Fists (RZA, Боевик, 2012) [HDRip, Ду ...
  • Игра смерти / Game of death (Роберт Клауз, Саммо Хунг Кам-Бо, Брюс Ли, боев ...
  • В хлам / Smashed (Джеймс Понсольдт, Драма, комедия, 2012) [HDRip, Профессио ...
  • Лучший стрелок / Top Gun (Тони Скотт, боевик, драма, мелодрама, 1986) [BDRi ...
  • Псы войны / The Dogs of War (Джон Ирвин, боевик, драма, приключения, военны ...
  • Захват / Carjacked (Джон Бонито, триллер, 2011)[BDRip, Профессиональный (мн ...
  • Папаша / Starbuck (Кен Скотт, Драма, комедия, 2011) [BDRip, Профессиональны ...
  • Неприкасаемые / Intouchables (Оливье Накаш, Эрик Толедано, Драма, 2011) [BD ...
  • Романтики / The Romantics (Галт Нидерхоффер, Драма, мелодрама, комедия, 201 ...
  • Замёрзший мир / 2012: Ice Age (Трэвис Форт, фантастика, боевик, 2011) [HDRi ...
  • Собака на сене (Ян Фрид, Музыкальная Комедия, 1977) [DVDRip, Не требуется]
  • Искажение / Skew (Сейв Челенз, ужасы, триллер, 2011) [HDRip, Профессиональн ...
  • Робинзон Крузо / Robinson Crusoe (Род Харди, Джордж Миллер, драма, приключе ...
  • Информация
    Посетители, находящиеся в группе Гости, не могут оставлять комментарии к данной публикации.