вход на сайт

Имя пользователя :
Пароль :

Восстановление пароля Регистрация
Железный крест / Cross of Iron (Сэм Пекинпа, Боевик, драма, военный, 1977) [BDRip, Профессиональный (многоголосый, закадровый), Sub]
Рейтинг:
(голосов: 1)



[img]{THEME}/images/logopost.png[/img]



Железный крест / Cross of Iron
«Men on the front lines of Hell.»


Год выпуска: 1977
Страна: США
Производство: Studio Canal, Calibra Pictures
Жанр: Боевик, драма, военный

Режиссёр: Сэм Пекинпа
В ролях: Джеймс Коберн, Максимилиан Шелл, Джеймс Мейсон, Дэвид Уорнер, Клаус Лёвич, Вадим Гловна, Рогер Фриц, Дитер Шидор, Буркхард Дрист, Фред Штилькраут ...



Перевод: Профессиональный (многоголосый, закадровый) [Первый канал]
Субтитры: Русские (отдельно)

Описание: 1943 год. Немецкая армия с тяжелыми боями отступает на Восточном фронте. На замену убитому командиру батальона прибывает переведенный из Франции капитан Странский. Этот элегантный прусский аристократ еще не бывал в настоящем сражении и мечтает любой ценой получить германский боевой орден — «Железный крест».

Чтобы достичь своей цели, Странскому нужно завоевать уважение командира взвода капрала Штайнера, закаленного в боях ветерана, пользующегося огромным авторитетом среди товарищей по оружию. А «универсальный солдат» Штайнер презирает офицеров, жаждущих славы, но предпочитающих не соваться на передовую…



Релиз от:

Качество: BDRip | исх. Железный крест / Cross of Iron (1977) Blu-Ray Remux
Продолжительность: 02:12:41 час.

Формат: AVI
Видео кодек: Xvid
Аудио кодек: AC3
Видео: 704x384 (16:9), 24.000 fps, Xvid ~1 375 kbps avg, 0.212 bit/pixel
Аудио: 48 kHz, AC3, 2 ch, 192 kbps avg

Дата премьеры (мир): 28 января 1977

"MediaInfo" ▼General
Complete name : D:Zheleznyj.krest.1977.BDRip.XviD.AC3.1.46gb.YTN.avi
Format : AVI
Format/Info : Audio Video Interleave
File size : 1.46 GiB
Duration : 2h 12mn
Overall bit rate : 1 576 Kbps
Writing application : VirtualDubMod 1.5.10.3 | www.virtualdub-fr.org || (build 2550/release)
Writing library : VirtualDubMod build 2550/release

Video
ID : 0
Format : MPEG-4 Visual
Format profile : Advanced [email protected]
Format settings, BVOP : 1
Format settings, QPel : No
Format settings, GMC : No warppoints
Format settings, Matrix : Custom
Codec ID : XVID
Codec ID/Hint : XviD
Duration : 2h 12mn
Bit rate : 1 375 Kbps
Width : 704 pixels
Height : 384 pixels
Display aspect ratio : 16:9
Frame rate : 24.000 fps
Color space : YUV
Chroma subsampling : 4:2:0
Bit depth : 8 bits
Scan type : Progressive
Compression mode : Lossy
Bits/(Pixel*Frame) : 0.212
Stream size : 1.27 GiB (87%)
Writing library : XviD 65

Audio
ID : 1
Format : AC-3
Format/Info : Audio Coding 3
Mode extension : CM (complete main)
Codec ID : 2000
Duration : 2h 12mn
Bit rate mode : Constant
Bit rate : 192 Kbps
Channel(s) : 2 channels
Channel positions : Front: L R
Sampling rate : 48.0 KHz
Bit depth : 16 bits
Compression mode : Lossy
Stream size : 182 MiB (12%)
Alignment : Split accross interleaves
Interleave, duration : 42 ms (1.00 video frame)
Interleave, preload duration : 500 ms





e97b7f1024bc50f61c4e7fc0272ad9bc7f3dbebfЖелезный крест / Cross of Iron (Сэм Пекинпа, Боевик, драма, военный, 1977) [BDRip, Профессиональный (многоголосый, закадровый), Sub] Железный крест / Cross of Iron (Сэм Пекинпа, Боевик, драма, военный, 1977) [BDRip, Профессиональный (многоголосый, закадровый), Sub] " />

Аплоадер: Админ, дата: 28-04-2013, 23:49, торрент скачан: 359 раз

Понравилась раздача? Посмотрите эти:
  • Погнали! / Getaway (Кортни Соломон, Боевик, Криминал, 2013) [HDRip, Професс ...
  • Вирус / Flu (Ким Сон Су, Драма, 2013) [HDTVRip, Любительский (двухголосый з ...
  • Железный человек и Халк: Союз героев / Iron Man & Hulk: Heroes United (Лео ...
  • Орудие смерти / A-i-deul... (Ли Гю Ман, Триллер, криминал, 2011) [DVDRip, П ...
  • Короткометражка Marvel: Агент Картер / Marvel One-Shot: Agent Carter (Луис ...
  • Верное дельце / Une pure affaire (Александр Коффре, Боевик, Комедия, Кримин ...
  • Облава / La rafle (Розлин Бош, драма, военный, история, 2010) [HDRip, Профе ...
  • Железный крест / Cross of Iron(режиссёр, Боевик, драма, военный, 1977) [BDR ...
  • Мужество / Wymyk (Грег Зглински, драма, 2011) [DVDRip, Любительский (одного ...
  • 42 / 42 (Брайан Хелгеленд, драма, биография, спорт, 2013) [BDRip, Профессио ...
  • Железный крест / Cross of Iron (Сэм Пекинпа, Боевик, драма, военный, 1977) ...
  • МЫ. Верим в любовь / W.E. (Мадонна, Драма, мелодрама, история, 2011) [BDRip ...
  • Железный Кулак / The Man with the Iron Fists (RZA, Боевик, 2012) [HDRip, Ду ...
  • В хлам / Smashed (Джеймс Понсольдт, Драма, комедия, 2012) [HDRip, Профессио ...
  • Лучший стрелок / Top Gun (Тони Скотт, боевик, драма, мелодрама, 1986) [BDRi ...
  • Псы войны / The Dogs of War (Джон Ирвин, боевик, драма, приключения, военны ...
  • Простые истины / Straight As (Джеймс Кокс, драма, комедия, 2013) [HDRip, П ...
  • Плохая актриса / Bad Actress (Роберт Ли Кинг, комедия, 2011) [DVDRip, Профе ...
  • Джефф, живущий дома / Jeff, Who Lives at Home (Джей Дюпласс, Марк Дюпласс, ...
  • Супер циклон / Super Cyclone (Лиз Адамс / Liz Adams, боевик, 2012) [HDRip, ...
  • Захват / Carjacked (Джон Бонито, триллер, 2011)[BDRip, Профессиональный (мн ...
  • Дом вверх дном / Bringing Down the House (Адам Шенкман, комедия, 2003) [BDR ...
  • Трус / Faintheart (Вито Рокко, Комедия, 2008) [BDRip, Профессиональный (дву ...
  • Супершторм в Сиэтле / Seattle Superstorm (Джейсон Бурк, фантастика, боевик ...
  • Глаз шторма / The Eye of the Storm (Фред Скеписи, Драма, 2011) [HDRip, Проф ...
  • Информация
    Посетители, находящиеся в группе Гости, не могут оставлять комментарии к данной публикации.