вход на сайт

Имя пользователя :
Пароль :

Восстановление пароля Регистрация
Коллекционер / The Collector (Уильям Уайлер, Триллер, драма, 1965) [BDRip-AVC, Профессиональный (многоголосый, закадровый)]
Рейтинг:
(голосов: 1)



[img]{THEME}/images/logopost.png[/img]



Коллекционер / The Collector

Год выпуска: 1965
Страна: Великобритания, США
Производство: Collector Company, Columbia Pictures Corporation
Жанр: Триллер, драма

Режиссёр: Уильям Уайлер
В ролях: Теренс Стэмп, Саманта Эггар, Мона Уошборн, Морис Дэллимор, Аллисон Амес, Гордон Барклай, Уильям Биклей, Дэвид Хэвиланд, Кеннет Мор, Эдина Ронай

Перевод: Профессиональный (многоголосый, закадровый)
Субтитры: нет

Описание: Банковский клерк Фредди Клегг коллекционирует бабочек. Он знает про них все, что только можно знать. Знать женщин у Фредди получается гораздо хуже. Но он пытается «коллекционировать» их тоже.

Однажды Фредди похищает хорошенькую студентку Миранду Грэй, и прячет ее там, где никто и никогда не сможет ее найти. Фредди не желает ей зла, не делает ей ничего плохого, он просто полагает, что если Миранда будет проводить с ним много времени, то она привыкнет к нему и полюбит его…



Качество: BDRip-AVC
Продолжительность: 01:59:12

Формат: AVI
Видео кодек: XviD
Аудио кодек: MPEG Layer 3
Видео: 960x520 (16:9), 23.976 fps, H.264 ~1555 kbps avg, 0.13 bit/pixel
Аудио: 48 kHz, MPEG Layer 3, 2 ch, ~192 kbps avg

Дата премьеры (мир): 5 июня 1965

MediaInfo ▼General
Unique ID : 251608479642368459850472971825404113569 (0xBD4A07D030FE5612B8980BB97CE2F2A1)
Complete name : D:Kollekcioner.1965.BDRip-AVC.H264.AC3.1.46Gb.YTN.mkv
Format : Matroska
Format version : Version 2
File size : 1.46 GiB
Duration : 1h 59mn
Overall bit rate : 1 749 Kbps
Encoded date : UTC 2013-05-12 21:49:55
Writing application : mkvmerge v5.8.0 (No Sleep / Pillow) built on Sep 2 2012 15:37:04
Writing library : libebml v1.2.3 + libmatroska v1.3.0
Video
ID : 1
Format : AVC
Format/Info : Advanced Video Codec
Format profile : [email protected]
Format settings, CABAC : Yes
Format settings, ReFrames : 11 frames
Codec ID : V_MPEG4/ISO/AVC
Duration : 1h 59mn
Bit rate : 1 555 Kbps
Width : 960 pixels
Height : 520 pixels
Display aspect ratio : 16:9
Frame rate : 23.976 fps
Color space : YUV
Chroma subsampling : 4:2:0
Bit depth : 8 bits
Scan type : Progressive
Bits/(Pixel*Frame) : 0.130
Stream size : 1.27 GiB (87%)
Title : Коллекционер (1965)
Writing library : x264 core 125 r2208 d9d2288
Encoding settings : cabac=1 / ref=11 / deblock=1:-1:-1 / analyse=0x3:0x113 / me=umh / subme=9 / psy=1 / psy_rd=1.00:0.20 / mixed_ref=1 / me_range=32 / chroma_me=1 / trellis=1 / 8x8dct=1 / cqm=0 / deadzone=21,11 / fast_pskip=0 / chroma_qp_offset=-3 / threads=3 / lookahead_threads=1 / sliced_threads=0 / nr=0 / decimate=1 / interlaced=0 / bluray_compat=0 / constrained_intra=0 / bframes=8 / b_pyramid=2 / b_adapt=1 / b_bias=0 / direct=3 / weightb=1 / open_gop=0 / weightp=2 / keyint=240 / keyint_min=23 / scenecut=40 / intra_refresh=0 / rc_lookahead=60 / rc=2pass / mbtree=1 / bitrate=1555 / ratetol=1.0 / qcomp=0.60 / qpmin=0 / qpmax=69 / qpstep=4 / cplxblur=20.0 / qblur=0.5 / ip_ratio=1.40 / aq=1:1.00
Language : Russian
Audio
ID : 2
Format : AC-3
Format/Info : Audio Coding 3
Mode extension : CM (complete main)
Codec ID : A_AC3
Duration : 1h 59mn
Bit rate mode : Constant
Bit rate : 192 Kbps
Channel(s) : 2 channels
Channel positions : Front: L R
Sampling rate : 48.0 KHz
Bit depth : 16 bits
Compression mode : Lossy
Stream size : 164 MiB (11%)
Title : Коллекционер (1965) | MVO
Language : Russian





20fe9d7cc5271e797f45b9b717d17e2add42fc27Коллекционер / The Collector (Уильям Уайлер, Триллер, драма, 1965) [BDRip-AVC, Профессиональный (многоголосый, закадровый)] Коллекционер / The Collector (Уильям Уайлер, Триллер, драма, 1965) [BDRip-AVC, Профессиональный (многоголосый, закадровый)] " />

Аплоадер: Админ, дата: 19-05-2013, 16:50, торрент скачан: 359 раз

Понравилась раздача? Посмотрите эти:
  • Коллекционер [Дилогия] / The Collection [Dilogy] (Маркус Данстэн, Ужасы, бо ...
  • FLO / NRG [2012, Pop, Dance, MasterRip]
  • Коллекционер / The Collector (Уильям Уайлер, триллер, драма, 1958) [DVDRip, ...
  • Коллекционер / The Collector (Уильям Уайлер, Триллер, драма, 1965) [BDRip, ...
  • Коллекционер / The Collector (Уильям Уайлер, Триллер, драма, 1965) [BDRip, ...
  • Смерть на похоронах / Death at a Funeral (Нил ЛаБут, комедия, 2010) [BDRip ...
  • Отдел 13 / Diamant 13 (Гайллз Бэхат, Боевик, триллер, криминал, 2009) [BDRi ...
  • Безопасность не гарантируется / Safety Not Guaranteed (Колин Треворроу, фан ...
  • Конец света / Fin (Хорхе Торрегросса, триллер, 2012) [BDRip-AVC, Профессион ...
  • Суррогат / The Sessions (Бен Луин, драма, 2012) [BDRip 720p, Профессиональн ...
  • Пирамида сынов Солнца / Die Pyramide des Sonnengottes (Роберт Сьодмак, Прик ...
  • Похищенная / A Lonely Place to Die (Джулиан Джилби, триллер, криминал, прик ...
  • Пятница 13-е / Friday the 13th (Шон С. Каннингэм, ужасы, триллер, детектив, ...
  • Коллекционер 2 / The Collection (Маркус Данстэн, ужасы, боевик, триллер , 2 ...
  • Любовь / Love (Уильям Юбэнк, Фантастика, драма, 2011) [BDRip 720p, Професси ...
  • Коллекционер 2 / The Collection (Маркус Данстэн, ужасы, боевик, триллер, 20 ...
  • Коллекционер 2 / The Collection (Маркус Данстэн, ужасы, боевик, триллер, 20 ...
  • Mylene Farmer / Du Temps [2011, Pop, HDTVRip]
  • Mylene Farmer / Bleu Noir [2011, Pop, HDTVRip]
  • Коллекционер / The Collector (Маркус Данстэн, Ужасы, триллер, 2009) [BDRip- ...
  • Информация
    Посетители, находящиеся в группе Гости, не могут оставлять комментарии к данной публикации.