вход на сайт

Имя пользователя :
Пароль :

Восстановление пароля Регистрация
Как выйти замуж за миллионера / How to Marry a Millionaire (Жан Негулеско, Драма, мелодрама, комедия, 1953) [BDRip, Дубляж]
Рейтинг:
(голосов: 1)



[img]{THEME}/images/logopost.png[/img]



Как выйти замуж за миллионера / How to Marry a Millionaire
«The Most Glamorous Entertainment Of Your Lifetime in CinemaScope. You See It Without Glasses!»

Год выпуска: 1953
Страна: США
Производство: 20th Century Fox Film Corporation
Жанр: Драма, мелодрама, комедия

Режиссёр: Жан Негулеско
В ролях: Лорен Бэколл, Бетти Грэйбл, Мэрилин Монро, Дэвид Уэйн, Рори Кэлхун, Кэмерон Митчелл, Александр Д’Арси, Фред Кларк, Уильям Пауэлл, Джордж Данн, Перси Хелтон, Роберт Адлер, Гарри Картер, Тудор Оуэн, Морис Марсак, Эмметт Воган, Гермина Штерлер, Эбни Мотт, Ральф Рид, Ян Арван, Ранкин Мэнсфилд, Дейтон Ламмис, Ивис Гулдинг, Эрик Вилтон, Ван Де Отелс, Иван Тризо, Херберт Динс, Хоуп Лэндин

Перевод: Дубляж
Субтитры: Отсутствуют

Описание: Нью-Йорк слезам не верит. Традиционная ситуация: три модели-блондинки ищут мужей-миллионеров. Для осуществления своих планов девушки снимают шикарную квартиру в элитном районе и начинают осуществлять задуманное. Проходят три месяца — из квартиры продана последняя мебель, а на горизонте — ни одной подходящей партии.
К финалу картины страсти накаляются, у двух подруг возникает дилемма: деньги или любовь? Лишь у третьей, на первый взгляд, все складывается хорошо. Но это лишь — на первый взгляд.



Качество: BDRip | Сэмпл
Продолжительность: 01:35:46 час.


Формат: AVI
Видео кодек: XviD
Аудио кодек: AC3
Видео: 688x272 (2.53:1), 23.976 fps, XviD, ~1720 kbps avg, 0.383 bit/pixel
Аудио: 48 kHz, AC3 Dolby Digital, 3/2 (L,C,R,l,r) + LFE ch, ~448 kbps - (Дубляж)

Дата премьеры (мир): 4 ноября 1953

MediaInfo ▼General
Complete name : D:Kak.Viyti.Zamuj.Za.Millionera.1953.BDRip.avi
Format : AVI
Format/Info : Audio Video Interleave
File size : 1.46 GiB
Duration : 1h 35mn
Overall bit rate : 2 177 Kbps
Writing application : VirtualDubMod 1.5.10.3 (build 2550/release)
Writing library : VirtualDubMod build 2550/release

Video
ID : 0
Format : MPEG-4 Visual
Format profile : Advanced [email protected]
Format settings, BVOP : 1
Format settings, QPel : No
Format settings, GMC : No warppoints
Format settings, Matrix : Custom
Codec ID : XVID
Codec ID/Hint : XviD
Duration : 1h 35mn
Bit rate : 1 720 Kbps
Width : 688 pixels
Height : 272 pixels
Display aspect ratio : 2.529
Frame rate : 23.976 fps
Color space : YUV
Chroma subsampling : 4:2:0
Bit depth : 8 bits
Scan type : Progressive
Compression mode : Lossy
Bits/(Pixel*Frame) : 0.383
Stream size : 1.15 GiB (79%)
Writing library : XviD 64

Audio
ID : 1
Format : AC-3
Format/Info : Audio Coding 3
Mode extension : CM (complete main)
Codec ID : 2000
Duration : 1h 35mn
Bit rate mode : Constant
Bit rate : 448 Kbps
Channel(s) : 6 channels
Channel positions : Front: L C R, Side: L R, LFE
Sampling rate : 48.0 KHz
Bit depth : 16 bits
Compression mode : Lossy
Stream size : 307 MiB (21%)
Alignment : Split accross interleaves
Interleave, duration : 42 ms (1.00 video frame)
Interleave, preload duration : 500 ms






8c311ea54bae96bcf5454a7d660ffcf29ffce5fdКак выйти замуж за миллионера / How to Marry a Millionaire (Жан Негулеско, Драма, мелодрама, комедия, 1953) [BDRip, Дубляж] Как выйти замуж за миллионера / How to Marry a Millionaire (Жан Негулеско, Драма, мелодрама, комедия, 1953) [BDRip, Дубляж] " />

Аплоадер: Админ, дата: 5-05-2013, 16:00, торрент скачан: 359 раз

Понравилась раздача? Посмотрите эти:
  • Вирус / Flu (Ким Сон Су, Драма, 2013) [HDTVRip, Любительский (двухголосый з ...
  • Великий Гэтсби / The Great Gatsby (Баз Лурман, Драма, мелодрама, 2013) [BDR ...
  • Безумный Макс 3: Под куполом грома / Mad Max Beyond Thunderdome (Джордж Мил ...
  • Безумный Макс 3: Под куполом грома / Mad Max Beyond Thunderdome (Джордж Мил ...
  • Мужество / Wymyk (Грег Зглински, драма, 2011) [DVDRip, Любительский (одного ...
  • 42 / 42 (Брайан Хелгеленд, драма, биография, спорт, 2013) [BDRip, Профессио ...
  • Неудержимый / Bullet to the Head (Уолтер Хилл, Боевик, триллер, криминал, 2 ...
  • Поймай толстуху, если сможешь [Театральная версия] / Identity Thief [Theatr ...
  • Решала (Роман Асхаев, Драма,Криминал, 2012) [WEB-DLRip, Не требуется]
  • Слепой поворот / Blind Turn (Роберт Орр, Триллер, драма, детектив, 2012) [W ...
  • Как выйти замуж за миллионера / How to Marry a Millionaire (Жан Негулеско, ...
  • МЫ. Верим в любовь / W.E. (Мадонна, Драма, мелодрама, история, 2011) [BDRip ...
  • Реальные Парни / Stand Up Guys (Фишер Стивенс, драма, комедия, криминал, 20 ...
  • Большие Надежды / Great Expectations (Майк Ньюэлл, драма, 2012) [BDRip, Дуб ...
  • Любовь на кончиках пальцев / Populaire (Режис Ройнсар, Мелодрама, комедия, ...
  • Марко Макако / Marco Macaco (Жан Рабек, мультфильм, комедия, семейный, 2012 ...
  • Весенние надежды / Hope Springs (Дэвид Фрэнкел, Драма, мелодрама, комедия, ...
  • Экипаж / Flight (Роберт Земекис, Драма, 2012) [BDRip, Профессиональный (пол ...
  • Тюремщик / Screwed (Рег Тревисс / Reg Traviss, Драма, 2011) [DVDRip , Люби ...
  • Захват / Carjacked (Джон Бонито, триллер, 2011)[BDRip, Профессиональный (мн ...
  • Как выйти замуж за миллионера / How to Marry a Millionaire ( Жан Негулеско, ...
  • Как выйти замуж за миллионера / How to Marry a Millionaire (Жан Негулеско, ...
  • Трус / Faintheart (Вито Рокко, Комедия, 2008) [BDRip, Профессиональный (дву ...
  • Девушки в опасности / Damsels in Distress (Уит Стиллман, драма, мелодрама, ...
  • Поймай меня, если сможешь / Catch Me If You Can (Стивен Спилберг, Драма, ко ...
  • Информация
    Посетители, находящиеся в группе Гости, не могут оставлять комментарии к данной публикации.