вход на сайт

Имя пользователя :
Пароль :

Восстановление пароля Регистрация
Железный крест / Cross of Iron(режиссёр, Боевик, драма, военный, 1977) [BDRip-AVC, Профессиональный (многоголосый закадровый), Sub]
Рейтинг:
(голосов: 1)



[img]{THEME}/images/logopost.png[/img]



Железный крест / Cross of Iron
«Men on the front lines of Hell.»

Год выпуска: 1977
Страна: США
Производство: Studio Canal, Calibra Pictures
Жанр: Боевик, драма, военный

Режиссёр: Сэм Пекинпа
В ролях: Джеймс Коберн, Максимилиан Шелл, Джеймс Мейсон, Дэвид Уорнер, Клаус Лёвич, Вадим Гловна, Рогер Фриц, Дитер Шидор, Буркхард Дрист, Фред Штилькраут

Перевод: Профессиональный (многоголосый закадровый) Первый канал
Субтитры: русские

Описание: 1943 год. Немецкая армия с тяжелыми боями отступает на Восточном фронте. На замену убитому командиру батальона прибывает переведенный из Франции капитан Странский. Этот элегантный прусский аристократ еще не бывал в настоящем сражении и мечтает любой ценой получить германский боевой орден — «Железный крест».

Чтобы достичь своей цели, Странскому нужно завоевать уважение командира взвода капрала Штайнера, закаленного в боях ветерана, пользующегося огромным авторитетом среди товарищей по оружию. А «универсальный солдат» Штайнер презирает офицеров, жаждущих славы, но предпочитающих не соваться на передовую…



Качество: BDRip-AVC
Продолжительность: 02:12:41 час.

Формат: MKV
Видео кодек: AVC
Аудио кодек: AC3
Видео: 736x400 (16:9), 24 fps, Xvid ~1 376 kbps avg, 0.195 bit/pixel
Аудио: 48 kHz, AC3, 2 ch, 192 kbps avg

Дата премьеры (мир): 28 января 1977

MediaInfo ▼General
Unique ID : 191444119733322927669218058758063371506 (0x9006CBD9791D3B8593CD81BB1E3BB4F2)
Complete name : D:heleznyj.krest.1977.BDRip-AVC.H264.AC3.1.45gb.YTN.mkv
Format : Matroska
Format version : Version 2
File size : 1.45 GiB
Duration : 2h 12mn
Overall bit rate : 1 570 Kbps
Encoded date : UTC 2013-04-25 15:24:47
Writing application : mkvmerge v5.8.0 (No Sleep / Pillow) built on Sep 2 2012 15:37:04
Writing library : libebml v1.2.3 + libmatroska v1.3.0
Video
ID : 1
Format : AVC
Format/Info : Advanced Video Codec
Format profile : [email protected]
Format settings, CABAC : Yes
Format settings, ReFrames : 11 frames
Codec ID : V_MPEG4/ISO/AVC
Duration : 2h 12mn
Bit rate : 1 376 Kbps
Width : 736 pixels
Height : 400 pixels
Display aspect ratio : 16:9
Frame rate : 24.000 fps
Color space : YUV
Chroma subsampling : 4:2:0
Bit depth : 8 bits
Scan type : Progressive
Bits/(Pixel*Frame) : 0.195
Stream size : 1.25 GiB (86%)
Title : Железный крест (1977) BDRip
Writing library : x264 core 125 r2208 d9d2288
Encoding settings : cabac=1 / ref=11 / deblock=1:-1:-1 / analyse=0x3:0x113 / me=umh / subme=9 / psy=1 / psy_rd=1.00:0.20 / mixed_ref=1 / me_range=32 / chroma_me=1 / trellis=1 / 8x8dct=1 / cqm=0 / deadzone=21,11 / fast_pskip=0 / chroma_qp_offset=-3 / threads=3 / lookahead_threads=1 / sliced_threads=0 / nr=0 / decimate=1 / interlaced=0 / bluray_compat=0 / constrained_intra=0 / bframes=8 / b_pyramid=2 / b_adapt=1 / b_bias=0 / direct=3 / weightb=1 / open_gop=0 / weightp=2 / keyint=240 / keyint_min=23 / scenecut=40 / intra_refresh=0 / rc_lookahead=60 / rc=2pass / mbtree=1 / bitrate=1376 / ratetol=1.0 / qcomp=0.60 / qpmin=0 / qpmax=69 / qpstep=4 / cplxblur=20.0 / qblur=0.5 / ip_ratio=1.40 / aq=1:1.00
Language : Russian
Audio
ID : 2
Format : AC-3
Format/Info : Audio Coding 3
Mode extension : CM (complete main)
Codec ID : A_AC3
Duration : 2h 12mn
Bit rate mode : Constant
Bit rate : 192 Kbps
Channel(s) : 2 channels
Channel positions : Front: L R
Sampling rate : 48.0 KHz
Bit depth : 16 bits
Compression mode : Lossy
Stream size : 182 MiB (12%)
Title : Железный крест (1977) | MVO (Первый канал)
Language : Russian
Text
ID : 3
Format : UTF-8
Codec ID : S_TEXT/UTF8
Codec ID/Info : UTF-8 Plain Text
Title : Железный крест (1977) | Русские субтитры
Language : Russian


79cd14428fd2f9bd9e79dd979cef105b4d96a93eЖелезный крест / Cross of Iron(режиссёр, Боевик, драма, военный, 1977) [BDRip-AVC, Профессиональный (многоголосый закадровый), Sub] Железный крест / Cross of Iron(режиссёр, Боевик, драма, военный, 1977) [BDRip-AVC, Профессиональный (многоголосый закадровый), Sub] " />

Аплоадер: Админ, дата: 6-06-2013, 12:46, торрент скачан: 359 раз

Понравилась раздача? Посмотрите эти:
  • Погнали! / Getaway (Кортни Соломон, боевик, криминал, 2013) [BDRip 720p, Пр ...
  • Верное дельце / Une pure affaire (Александр Коффре, Боевик, Комедия, Кримин ...
  • Посылка / The Package (Джесси Джонсон, боевик, 2013) [BDRip 720p, Профессио ...
  • [3D] Железный человек 3 / Iron Man 3 (Шейн Блэк, Фантастика, боевик, приклю ...
  • Железный человек 3 / Iron Man 3 (Шейн Блэк, Фантастика, боевик, приключения ...
  • Железный человек 3 / Iron Man 3 (Шейн Блэк, фантастика, боевик, триллер, 20 ...
  • Железный человек 3 / Iron Man 3 (Шейн Блэк, фантастика, боевик, триллер, 20 ...
  • Железная леди / The Iron Lady (Филлида Ллойд, драма, биография, история, 20 ...
  • Коллекционер / The Collector (Уильям Уайлер, Триллер, драма, 1965) [BDRip-A ...
  • Железный крест / Cross of Iron (Сэм Пекинпа, Боевик, драма, военный, 1977) ...
  • Железный крест / Cross of Iron (Сэм Пекинпа, Боевик, драма, военный, 1977) ...
  • Отдел 13 / Diamant 13 (Гайллз Бэхат, Боевик, триллер, криминал, 2009) [BDRi ...
  • Железный Кулак [Театральная версия] / The Man with the Iron Fists [Theatric ...
  • Железный Кулак [Театральная версия] / The Man with the Iron Fists [Theatric ...
  • Запретная любовь / The Edge of Love (Джон Мэйбери, Драма, мелодрама, военны ...
  • Суррогат / The Sessions (Бен Луин, драма, 2012) [BDRip 720p, Профессиональн ...
  • Убить по расписанию / Ticking Clock (Эрни Барбараш, фантастика, боевик, три ...
  • Цельнометаллическая оболочка / Full Metal Jacket (Стэнли Кубрик, драма, вое ...
  • Голодный кролик атакует / Seeking Justice (Роджер Дональдсон, боевик, 2011) ...
  • Голодный кролик атакует / Seeking Justice (Роджер Дональдсон / Roger Donald ...
  • Мартовские иды / The Ides of March (Джордж Клуни / George Clooney, драма, 2 ...
  • Поворот не туда 4 / Wrong Turn 4 (Деклан О’Брайэн, ужасы, боевик, детектив, ...
  • Учитель на замену / Detachment (Тони Кэй, драма, 2011) [BDRip-AVC, Професси ...
  • Железный человек / Iron Man (Джон Фавро, фантастика, боевик, триллер, прикл ...
  • Футбольные гладиаторы / Ушедшее время / Awaydays (Пэт Холден, драма, кримин ...
  • Информация
    Посетители, находящиеся в группе Гости, не могут оставлять комментарии к данной публикации.